File-Portal

ван гог 2010 скачать торрент

Рейтинг: 4.8/5.0 (840 проголосовавших)

Категория: Торрент-файлы

Описание

Скачать фильм Ван Гог

Скачать фильм Ван Гог. Нарисованное словами (Винсент Ван Гог. Портрет, написанный словами) / Vincent van Gogh. Painted with Words (Эндрю Хаттон) [2010, документальный, постановочный, история, биография, живопись, SATRip] MVO - торрент

Бесплатные торренты всегда на нашем сайте и в хорошем качестве! Фильм доступен на нашем торрент-трекере бесплатно, без регистрации и смс.

Ван гог 2010 скачать торрентПеревод: Профессиональный (многоголосый), переведено и озвучено "СВ Дубль" по заказу ГТРК "Культура"

Формат: SATRip, AVI, XviD, MP3

Страна: BBC, Великобритания

Режиссер: Эндрю Хаттон

1347 kbps avg, 0.19 bit/pixel

Аудио: 48 kHz, MPEG Layer 3, 2 ch,

Ван гог 2010 скачать торрент

Ван гог 2010 скачать торрент

Ван гог 2010 скачать торрент

Ван гог 2010 скачать торрент

Ван гог 2010 скачать торрент

Ван гог 2010 скачать торрент

Информация о торренте:

Статус: Проверен Зарегистрирован на трекере: 2017-06-25 18:06

ван гог 2010 скачать торрент:

  • скачать
  • скачать
  • Другие статьи

    Ван гог 2010 скачать торрент

    Ван Гог: портрет, написанный словами / Van Gogh: Painted with Words (2010) DVDRip | L1

    Ван гог 2010 скачать торрент

    Название: Ван Гог: портрет, написанный словами

    Оригинальное название: Van Gogh: Painted with Words

    Год выхода: 2010

    Режиссер: Эндрю Хаттон / Andrew Hutton

    В ролях: Бенедикт Камбербэтч / Benedict Cumberbatch (Vincent Van Gogh), Джейми Паркер / Jamie Parker (Theo Van Gogh), Эйдан Макардл / Aidan McArdle (Paul Gauguin), Дэниел Вейман / Daniel Weyman (Anthon Van Rappard)

    Он начал карьеру в торговой фирме, но был уволен. Тогда он решил, что хочет стать учителем, но не мог найти постоянную работу. Затем он учился, чтобы стать священником, но провалил экзамены. У него не получалось ничего, за что бы он ни брался, пока не начал рисовать эскизы.

    Фильм о жизни и творчестве Винсента Ван Гога, основанный на его письмах к своему младшему брату Теодору.

    Студия: BBC Television Centre

    Перевод: Любительский одноголосый закадровый [озвучил Abrum]

    Видео: MPEG4 Video (H264) 854x480 25fps 1357kbps

    Ван Гог: портрет, написанный словами (2010) смотреть онлайн или скачать фильм через торрент

    Ван Гог: портрет, написанный словами (2010)

    ( Van Gogh: Painted with Words )

    Дата выхода в России (или в Мире): 05.04.2010

    Он начал карьеру в торговой фирме, но был уволен. Тогда он решил, что хочет стать учителем, но не мог найти постоянную работу. Затем он учился, чтобы стать священником, но провалил экзамены. У него не удавалось ничего, за что бы он ни брался, пока не начал рисовать эскизы.

    Название фильма Название антологии

    07 Авг. 2014 13:07

    Для просмотра скриншотов нажмите на описание торрента!

    Ван гог 2010 скачать торрент Ван гог 2010 скачать торрент Ван гог 2010 скачать торрент

    Фильмы похожие на Ван Гог: портрет, написанный словами

    Видео кодек: H.26x

    Аудио кодек: AAC

    Видео: MPEG4 Video (H264) 854x480 25fps 1357kbps

    Аудио: AAC 48000Hz stereo 128kbps

    Видео кодек: XviD

    Аудио кодек: MP3

    Видео: XviD 656x368 25fps

    Аудио: Аудио#1: 44 kHz, МР3, 2/0 (L,R) ch,

    128.00 kbps avg ИндивИдуалист

    Аудио#2: 44 kHz, МР3, 2/0 (L,R) ch,

    128.00 kbps avg [Оригинал]

    Перевод: Любительский одноголосый закадровый - ИндивИдуалист

    Ван Гог: портрет, написанный словами

    (Van Gogh: Painted with Words)

    Ван гог 2010 скачать торрент

    Он начал карьеру в торговой фирме, но был уволен. Тогда он решил, что хочет стать учителем, но не мог найти постоянную работу. Затем он учился, чтобы стать священником, но провалил экзамены. У него не удавалось ничего, за что бы он ни брался, пока не начал рисовать эскизы.

    Ван гог 2010 скачать торрент

    Ван гог 2010 скачать торрент

    Ван гог 2010 скачать торрент

    Я вообще удивлён, что он рисовал "Ирисы" и "Звёздное небо", а не сплошь и рядом, Босховских "милашек".

    Ван гог 2010 скачать торрент

    Ван гог 2010 скачать торрент

    А Вам удалось меня заинтересовать, не менее страстным комментарием

    Если честно, всегда с подозрением (или всё таки предубеждением?) относился к работам Ван Гога, предпочитая творчество классических "лессировщиков", поэтому не знал о его жизни, ровным счётом ничего, кроме отрезанного уха, теперь постараюсь восполнить этот пробел.

    Ван Гог: портрет, написанный словами

    ван гог 2010 скачать торрент

    Format/Info : Audio Video Interleave

    File size : 663 MiB

    Duration : 1h 19mn

    Overall bit rate : 1 160 Kbps

    Writing application : VirtualDubModRus 1.5.10.2 (build 2542/release)

    Writing library : VirtualDubMod build 2542/release

    Format : MPEG-4 Visual

    Format profile : Advanced Simple@L5

    Format settings, BVOP : 1

    Format settings, QPel : No

    Format settings, GMC : No warppoints

    Format settings, Matrix : Custom

    Codec ID/Hint : XviD

    Duration : 1h 19mn

    Bit rate : 890 Kbps

    Width : 656 pixels

    Height : 368 pixels

    Display aspect ratio : 16:9

    Frame rate : 25.000 fps

    Color space : YUV

    Chroma subsampling : 4:2:0

    Bit depth : 8 bits

    Scan type : Progressive

    Compression mode : Lossy

    Stream size : 509 MiB (77%)

    Writing library : XviD 1.2.1 (UTC 2008-12-04)

    Format : MPEG Audio

    Format version : Version 1

    Format profile : Layer 3

    Mode : Joint stereo

    Mode extension : MS Stereo

    Codec ID/Hint : MP3

    Duration : 1h 19mn

    Bit rate mode : Constant

    Bit rate : 128 Kbps

    Channel(s) : 2 channels

    Sampling rate : 44.1 KHz

    Compression mode : Lossy

    Stream size : 72.8 MiB (11%)

    Alignment : Aligned on interleaves

    Interleave, duration : 40 ms (1.00 video frame)

    Interleave, preload duratio : 522 ms

    Format : MPEG Audio

    Format version : Version 1

    Format profile : Layer 3

    Codec ID/Hint : MP3

    Duration : 1h 19mn

    Bit rate mode : Constant

    Bit rate : 128 Kbps

    Channel(s) : 2 channels

    Sampling rate : 44.1 KHz

    Compression mode : Lossy

    Stream size : 72.9 MiB (11%)

    Alignment : Split accross interleaves

    Interleave, duration : 40 ms (1.00 video frame)

    Скачать Ван Гог: портрет, написанный словами 2010 - ТОРРЕНТИНО - торрент трекер - бесплатно TVRip

    Ван Гог: портрет, написанный словами / Van Gogh: Painted with Words (Эндрю Хаттон / Andrew Hutton) [2010 г., документально-игровой, TVRip, sub]

    Ван Гог: портрет, написанный словами / Van Gogh: Painted with Words

    Год выпуска: 2010

    Русские субтитры: есть

    Режиссер: Эндрю Хаттон / Andrew Hutton

    В ролях: Бенедикт Камбербэтч, Джеми Паркер, Айдан МакАрдл

    Документально-игровой фильм о жизни и творчестве художника. В основу его сценария легла переписка художника с братом, в которой ван Гог расскрывается не только как вдумчивый, требовательный к себе художник, но и как противоречивая личность, мужественный человек, часто грубый и резкий, но в тоже время чуткий и ранимый.

    Я бы хотела отметить замечательную игру Бенедикта Камбербэтча и прекрасное музыкальное сопровождение - акварельно-прозрачная, мелодичная музыка Молли Найман и Гарри Эскотта.

    Перевод: cab, Stasera, Vencejo (solarven), BlueberryS (Hercul), mckuroske, Fuura_Kafuka

    В фильме звучит стихотворение Джона Китса «Ода к осени» в переводе Б. Л. Пастернака и цитата из романа Ч. Диккенса "Приключения Оливера Твиста" в переводе А. В. Кривцовой.