File-Portal

сплин песни скачать через торрент

Рейтинг: 4.5/5.0 (318 проголосовавших)

Категория: Торрент-файлы

Описание

Сплин - Лучшие песни 2006, Rock, FLAC

Сплин - Лучшие песни [2006, Rock, FLAC]

Magnet-ссылка (альтернативная ссылка для скачивания файла)

Сплин песни скачать через торрент

02. Время, назад! [04:11]

03. Урок географии [04:57]

04. Пластмассовая жизнь [02:26]

05. Любовь идёт по проводам [04:23]

06. Три цвета (Первый снег) [04:41]

07. Пой мне ещё [03:56]

08. Бонни и Клайд [02:42]

09. Орбит без сахара [02:17]

10. Скоро будет солнечно [04:42]

11. Остаёмся зимовать [03:39]

12. Ленинград-Amsterdam [02:38]

14. Моё сердце [04:10]

15. Весь этот бред [03:06]

16. Новые люди [03:45]

17. Приходи [04:01]

18. Гандбол [02:32]

19. Выхода нет [03:47]

20. Звезда рок-н-ролла [04:11]

21. Бог устал нас любить [02:29]

Использование точного потока : Да

Отключение кэша аудио : Да

Использование указателей C2 : Нет

Способность читать области Lead-in и Lead-out : Нет

Заполнение пропущенных сэмплов тишиной : Да

Удаление блоков с тишиной в начале и конце : Нет

При вычислениях CRC использовались нулевые сэмплы : Да

Интерфейс : Встроенный Win32-интерфейс для Win NT/2000

Формат сэмплов : 44.100 Гц; 16 бит; стерео

1 | 0:00.00 | 3:01.07 | 0 | 13581

2 | 3:01.07 | 4:12.00 | 13582 | 32481

3 | 7:13.07 | 4:57.05 | 32482 | 54761

4 | 12:10.12 | 2:26.68 | 54762 | 65779

5 | 14:37.05 | 4:23.15 | 65780 | 85519

6 | 19:00.20 | 4:41.72 | 85520 | 106666

7 | 23:42.17 | 3:56.62 | 106667 | 124428

8 | 27:39.04 | 2:42.26 | 124429 | 136604

9 | 30:21.30 | 2:17.13 | 136605 | 146892

10 | 32:38.43 | 4:43.00 | 146893 | 168117

11 | 37:21.43 | 3:39.52 | 168118 | 184594

12 | 41:01.20 | 2:38.30 | 184595 | 196474

13 | 43:39.50 | 3:24.11 | 196475 | 211785

14 | 47:03.61 | 4:10.33 | 211786 | 230568

15 | 51:14.19 | 3:06.12 | 230569 | 244530

16 | 54:20.31 | 3:45.18 | 244531 | 261423

17 | 58:05.49 | 4:01.65 | 261424 | 279563

18 | 62:07.39 | 2:32.72 | 279564 | 291035

19 | 64:40.36 | 3:47.05 | 291036 | 308065

20 | 68:27.41 | 4:11.52 | 308066 | 326942

21 | 72:39.18 | 2:29.20 | 326943 | 338137

Качество диапазона 100.0 %

CRC теста 76328E09

CRC копии 76328E09

Трек 2 точное извлечение (доверие 1) [59F5C676]

Трек 3 точное извлечение (доверие 1) [1F24FF1A]

Трек 4 точное извлечение (доверие 1) [89E9BCA1]

Трек 5 точное извлечение (доверие 1) [7F6461A9]

Трек 6 точное извлечение (доверие 1) [EEE70CA3]

Трек 7 точное извлечение (доверие 1) [44815F8F]

Трек 8 точное извлечение (доверие 1) [1C8D3ABE]

Трек 9 точное извлечение (доверие 1) [68146F0D]

Трек 10 точное извлечение (доверие 1) [4969F909]

Трек 11 точное извлечение (доверие 1) [FF94425E]

Трек 12 точное извлечение (доверие 1) [4848F358]

Трек 13 точное извлечение (доверие 1) [95D38E3D]

Трек 14 точное извлечение (доверие 1) [5D0CEE00]

Трек 15 точное извлечение (доверие 1) [0D8FF168]

Трек 16 точное извлечение (доверие 1) [703C44B7]

Трек 17 точное извлечение (доверие 1) [4CF7B467]

Трек 18 точное извлечение (доверие 1) [A724A8D7]

Трек 19 точное извлечение (доверие 1) [45E1442E]

Трек 20 точное извлечение (доверие 1) [DA0EA80F]

Трек 21 точное извлечение (доверие 1) [0FB7752A]

сплин песни скачать через торрент:

  • скачать
  • скачать
  • Другие статьи

    Сплин - Акустика

    Сплин - Акустика. Взрослые песни / 2001 / РУ / TVRip скачать торрент

    Наверняка вы посетили Rutor, чтобы скачать торрент Сплин - Акустика. Взрослые песни / 2001 / РУ / TVRip .Если вам не составит труда, оставьте отзыв, для нас это важно и полезно для посетителей!

    Сплин песни скачать через торрент

    Год выпуска: 2001

    Выпущено: Россия, Телеканал МУЗ-ТВ

    Исполнитель: Сплин, Александр Васильев (II), Ян Николенко

    О фильме: Акустический сет группы Сплин в составе Александра Васильева и Яна Николенко в программе Дмитрия Широкова "Взрослые песни" на телеканале МУЗ-ТВ. Эфир от 18 июня 2001 года, запись с повтора программы.

    Скачать фильм Сплин - Акустика. Взрослые песни / 2001 / РУ / TVRip через торрент Скачать Похожие торренты на:

    Сплин - Акустика. Взрослые песни / 2001 / РУ / TVRip через торрент на Рутор.Орг

    Скачать музыка Сплин - Лучшие песни - ТОРРЕНТИНО - торрент трекер

    Сплин - Лучшие песни [2006, Рок, MP3]

    Сплин - Лучшие песни

    Формат: АLAC, tracks, lossless

    Год выпуска: 2006

    03 Урок Географии

    04 Пластмассовая Жизнь

    05 Любовь Идёт По Проводам

    06 Три Цвета (Первый Снег)

    08 Бонни И Клайд

    09 Орбит Без Сахара

    10 Скоро Будет Солнечно

    11 Остаёмся Зимовать

    12 Ленинград - Амстердам

    15 Весь Этот Бред

    20 Звезда Рок-Н-Ролла

    21 Бог Устал Нас Любить

    Сплин (от англ. spleen или от устарев. русского "Сплин" — хандра) — российская рок-группа. Бессменный лидер — Александр Васильев. Датой рождения группы считается 27 мая 1994 года.

    Александр Васильев — вокал, гитара

    Алексей Мещеряков — ударные

    Вадим Сергеев — электрогитара

    Николай Ростовский — клавишные

    Дмитрий Кунин — бас-гитара

    Музыканты, участвовавшие в группе

    1994—2004 - Александр Морозов (Моррис) — бас-гитара. В настоящий момент является тур-менеджером группы

    1995 — август 1998 - Николай Лысов — ударные. В настоящий момент участвует в группе Пилот

    20 сентября 1998—2004 - Сергей Наветный (Нава) — ударные. В настоящий момент работает над сольным проектом «Нава» и участвует в группе «Эдипов комплекс».

    2001 - Николай Воронов — бас-гитара.

    1994 — апрель 2006 - Стас Березовский — гитара. В настоящий момент «свободно плавает» и сотрудничает с коллективом «Лена Тэ».

    1997 — апрель 2006 - Ян Николенко — флейта, бэк-вокал, перкуссия. В настоящий момент лидер группы «Эдипов комплекс», участник группы "Би-2" (клавишные, флейта)

    2006 — апрель 2006 - Владимир Коляда — гитара. В настоящий момент гитарист группы «Эдипов комплекс»

    2006 — июнь 2006 - Иннокентий Агафонов — гитара.

    Скачать Сплин - Резонанс

    Сплин - Резонанс. Часть 1 (2014) [FLAC|Lossless]<Rock>

    Пиры будут получены при скачивании

    Стаж: 3 года 4 месяца

    Сплин песни скачать через торрент

    01-Июн-2014 17:48

    Сплин песни скачать через торрент

    Лейбл: Навигатор Рекордс

    Номер по каталогу: NR 0214

    Продолжительность: 00:44:40 - Кодек: FLAC

    Тип рипа: image + .cue - Треклист:

    01 - Всадник (2:50)

    02 - Ай лов ю! (3:21)

    03 - Старый дом (2:39)

    04 - Мороз по коже (3:05)

    06 - Есть кто-нибудь живой? (3:10)

    07 - Рай в шалаше (3:14)

    08 - Всё наоборот (1:23)

    09 - Помолчим немного (3:42)

    10 - Пусть играет музыка! (3:14)

    11 - Горизонт событий (2:36)

    12 - Среди зимы (2:43)

    13 - Дверной глазок (5:24)

    14 - Подводная песня (3:28)

    Дополнительная информация&#58; Отчёт ЕАС&#58;

    EAC extraction logfile from 15. March 2014, 15:14

    Сплин / Резонанс. Часть 1

    Used drive : PIONEER DVD-RW DVR-219L Adapter: 4 ID: 0

    Read mode : Secure

    Utilize accurate stream : Yes

    Defeat audio cache : Yes

    Make use of C2 pointers : No

    Read offset correction : 6

    Overread into Lead-In and Lead-Out : No

    Fill up missing offset samples with silence : Yes

    Delete leading and trailing silent blocks : No

    Null samples used in CRC calculations : Yes

    Used interface : Native Win32 interface for Win NT & 2000

    Used output format : Internal WAV Routines

    Sample format : 44.100 Hz; 16 Bit; Stereo

    TOC of the extracted CD

    Track | Start | Length | Start sector | End sector

    1 | 0:00.00 | 2:49.71 | 0 | 12745

    2 | 2:49.71 | 3:20.39 | 12746 | 27784

    3 | 6:10.35 | 2:39.12 | 27785 | 39721

    4 | 8:49.47 | 3:04.74 | 39722 | 53595

    5 | 11:54.46 | 3:52.00 | 53596 | 70995

    6 | 15:46.46 | 3:10.19 | 70996 | 85264

    7 | 18:56.65 | 3:13.52 | 85265 | 99791

    8 | 22:10.42 | 1:22.64 | 99792 | 106005

    9 | 23:33.31 | 3:42.20 | 106006 | 122675

    10 | 27:15.51 | 3:13.60 | 122676 | 137210

    11 | 30:29.36 | 2:35.40 | 137211 | 148875

    12 | 33:05.01 | 2:42.62 | 148876 | 161087

    13 | 35:47.63 | 5:23.47 | 161088 | 185359

    14 | 41:11.35 | 3:28.14 | 185360 | 200973

    Range status and errors

    Filename D:\EAC Rip\Сплин - Резонанс. Часть 1 (2014) [FLAC]\Сплин - Резонанс. Часть 1.wav

    Peak level 100.0 %

    Extraction speed 2.9 X

    Range quality 100.0 %

    Test CRC E54795AF

    Copy CRC E54795AF

    No errors occurred

    End of status report

    ---- CUETools DB Plugin V2.1.3

    [CTDB TOCID: 8YDCVvY2It4bq3rzQXClETxddHk-] disk not present in database, Submit result: 8YDCVvY2It4bq3rzQXClETxddHk- has been uploaded

    ==== Log checksum 6E329BC97179F6BD34A02BD70B1A89C74959013E8B7EDC1493E8276203C98F5E ====

    Отчёт auCDtect Task manager&#58;

    DON'T MODIFY THIS FILE

    PERFORMER: auCDtect Task Manager, ver. 1.6.0 RC1 build 1.6.0.1

    Copyright (c) 2008-2010 y-soft. All rights reserved

    ANALYZER: auCDtect: CD records authenticity detector, version 0.8.2

    Copyright (c) 2004 Oleg Berngardt. All rights reserved.

    Copyright (c) 2004 Alexander Djourik. All rights reserved.

    FILE: Сплин - Резонанс. Часть 1.flac

    Size: 316143628 Hash: 4C00DFF74D3E4782729A1B99BDFFD265 Accuracy: -m0

    Conclusion: CDDA 100%

    Послушать&#58;

    Сплин песни скачать через торрент

    Время раздачи: с 9-00 до 23-00 по Киеву -

    Только с согласия релизера

    Текущее время: Сегодня 00:22

    Часовой пояс: GMT + 4

    Вы не можете отвечать на сообщения

    Вы не можете редактировать свои сообщения

    Вы не можете удалять свои сообщения

    Вы не можете голосовать в опросах

    Вы не можете прикреплять файлы к сообщениям

    Вы можете скачивать файлы

    Search Powered by Sphinx

    Powered by TorrentPier II © Meithar, TorrentPier II Team

    Сплин 2017 MP3 скачать бесплатно, музыка сплин 2017 - 59 песен

    сплин 2017

    Бонни и Клайд (Ремастеринг 2017)

    Павел Хусаинов

    Остаёмся зимовать cover Сплин (19.01.2017)

    Кит (Ключ к шифру 2017)

    Алкоголь на глюкофоне / live 2017

    Пирамиды (Ростов-на-Дону, КСК "Экспресс", 03.02.2017)

    Филини [Сплин cover] (Мостовской, квартирник у Волковых, 22.07.2017)

    Филини [СПЛИН cover] (Краснодар, The Rock-bar, 12.06.2017)

    Сергей тенев

    Сплин - Выхода нет кавер 2017

    Андрей Shumrise Шамрай

    Рай в шалаше (Сплин кавер) live in KKKyt 12.02.2017

    10 лучших песен 2017 (Suchkov's version)

    Андрей Shumrise

    Феллини (Сплин кавер) (live 15.04.2017)

    Наше радио 13.03.2017

    Андрей Shumrise

    Выпусти меня отсюда (Сплин кавер) (live 15.04.2017)

    "НиХУЯ_Себе..НИХУЯ_СЕБЕ. "© :3 19.03.2017-20.03.2017

    Гандбол (Рязань, 2017)

    Она была так прекрасна (2017)

    Павел Хусаинов

    Альтависта cover Сплин (19.01.2017)

    Евгения 20.08.2017

    Сплин - Новые люди

    Павел Хусаинов

    Первый снег cover Сплин (Борода live 19.01.2017)

    Павел Хусаинов

    Выхода нет cover Сплин (Борода live 19.01.2017)

    DJ JEDY feat ILAILA

    (cover Сплин remix 2017)

    Павел Хусаинов

    Новые люди cover Сплин (19.01.2017)

    leo-king-one

    Сплин - "Кто-то не успел", 23 мая 2017

    Алкоголь (Live 2017)

    День за днём(13.03.2017)

    Павел Хусаинов

    Новые люди cover Сплин (Борода live 19.01.2017)

    Рай в шалаше 2017

    Александр Путник 2017

    Выхода нет (Сплин)

    Сплин&Badger

    25 Кадр (Cover) | 25.02.2017

    Маяк (live Ледовый 2017)

    МИМО ВСЕЛЕННОЙ

    Глаза Океаны (Сплин version) (стрим 16.08.2017)

    Феллини. Ледовый дворец (22.04.2017)

    Далеко домой (гр.Сплин, 2017)

    Эфир "10 баллов", 13 марта 2017 (Москва)

    Путь на восток (17.03.2017)

    Выхода нет (НАШЕСТВИЕ 2017)

    Павел Хусаинов

    Иди через лес cover Сплин (19.01.2017)

    Романс (После тебя 2017)

    Stella Maris band

    Приходи (кавер песни группы Сплин) - Doolin House, 14.03.2017

    Череп и кости (Челябинск, ДС Юность, 12.03.2017)

    Алкоголь (Crocus City Hall, 17.03.2017)

    Скоро будет солнечно (гр.Сплин, 2017)

    ДЖапм репа 27.06.2017

    Сплин - мое сердце

    Сплин на нашествие 2017

    Феллини (live Рок За Бобров 2017)

    Маяк (live 11.03.2017) (Сплин cover)

    Imagine Dragons & Kanye West & L'one feat. Сплин

    Very New Song 2017 (feat. Tiёsto)

    Сплин&Badger

    Коллекционер оружия (Летели Облака Версия Перед Концертом Алины Орловой в Киеве 3 Февраля 2017)

    Ключь от шифра (весь альбом 2017 ) 320 кб\с

    Выхода нет

    Сплин - моё сердце (06.05.2017)

    Андрей Shumrise

    Продюссер группы Сплин (Сплин кавер) (live 15.04.2017)

    Ария&Наутилус Помпилиус&Сплин&Сергей Маврин&Бураков Артем

    Русский Рок (27 Апреля 2017 Барнаул): Праздник Посвящённый Очищению Воды В Реке Обь [ сновидение.. ]