File-Portal

скачать торрент шофер поневоле

Рейтинг: 4.1/5.0 (697 проголосовавших)

Категория: Торрент-файлы

Описание

Скачать фильм Шофёр поневоле (1957) через торрент

Скачать фильм Шофёр поневоле (Надежда Кошеверова) / [1957, Комедия] - торрент

Скачать фильм через торрент бесплатно. Фильм доступен на нашем торрент-трекере бесплатно, без регистрации и смс.

Скачать торрент шофер поневолеФормат: DVDRip, AVI, DivX, AC3

Режиссер: Надежда Кошеверова

Описание: Однажды ранним летним утром руководитель Главка Пастухов и его шофёр Саврасов отправились на машине в отпуск. На первом же привале у Саврасова случился острый приступ радикулита. Закутав своего спутника в свой пиджак, Пастухов довозит водителя до больницы, где того по документам в пиджаке принимают за начальника Главка. А сам Пастухов с трудом добирается до райцентра, испытав по дороге множество неудобств и несуразиц, которые стали результатом деятельности работников его Главка.

Видео: 672x496 (1.35:1), 25 fps, DivX Codec 5.x or 6.x

2031 kbps avg, 0.24 bit/pixel

Аудио: 48 kHz, AC3 Dolby Digital, 2/0 (L,R) ch,

скачать торрент шофер поневоле:

  • скачать
  • скачать
  • Другие статьи

    Шофёр поневоле (1957) DVDRip

    Шофёр поневоле (1957) DVDRip

    Скачать торрент шофер поневоле

    Год выпуска: 1957

    "Комедия ошибок" на Советский лад - Однажды ранним летним утром руководитель Главка Пастухов и его шофёр Саврасов отправились на машине в отпуск. На первом же привале у Саврасова случился острый приступ радикулита. Закутав шофера в свой пиджак, Пастухов довозит его до больницы, где того по документам в пиджаке принимают за начальника Главка. А сам Пастухов с трудом добирается до райцентра, испытав по дороге множество неудобств и несуразиц, которые стали результатом деятельности работников его Главка.

    Актеры: Пётр Алейников, Мария Миронова, Сергей Филиппов, Анатолий Абрамов, Лилия Гриценко, Юрий Соловьёв, Антоний Ходурский, Ирина Зарубина, Гликерия Богданова-Чеснокова, Вера Карпова, Людмила Волынская

    2031 kbps avg, 0.24 bit/pixel

    Размер кадра: 672x496 (1.35:1)

    Качество видео: DVDRip

    Аудиокодек: AC3 Dolby Digital, 2/0 (L,R) ch

    Полное имя : C:\chofior_ponevole.avi

    Формат/Информация : Audio Video Interleave

    Размер файла : 1,37 Гбайт

    Продолжительность : 1 ч. 27 м.

    Общий поток : 2233 Кбит/сек

    Программа кодирования : VirtualDubModRus 1.5.10.2 (build 2542/release)

    Библиотека кодирования : VirtualDubMod build 2542/release

    Формат : MPEG-4 Visual

    Параметр BVOP формата : 1

    Параметр QPel формата : Нет

    Параметр GMC формата : Без точки перехода

    Параметр матрицы формата : Default (H.263)

    Режим смешивания : Сжатый битовый поток

    Идентификатор кодека : DX50

    Идентификатор кодека/Подсказка : DivX 5

    Продолжительность : 1 ч. 27 м.

    Битрейт : 2032 Кбит/сек

    Ширина : 672 пикселя

    Высота : 496 пикселей

    Соотношение сторон : 4:3

    Частота кадров : 25,000 кадров/сек

    Цветовое пространство : YUV

    Субдискретизация насыщенности : 4:2:0

    Битовая глубина : 8 бит

    Тип развёртки : Прогрессивная

    Метод сжатия : С потерями

    Размер потока : 1,24 Гбайт (91%)

    Библиотека кодирования : DivX 6.8.2 (UTC 2008-05-17)

    Формат/Информация : Audio Coding 3

    Расширение режима : CM (complete main)

    Идентификатор кодека : 2000

    Продолжительность : 1 ч. 27 м.

    Вид битрейта : Постоянный

    Битрейт : 192 Кбит/сек

    Каналы : 2 канала

    Расположение каналов : Front: L R

    Частота : 48,0 КГц

    Битовая глубина : 16 бит

    Метод сжатия : С потерями

    Размер потока : 120 Мбайт (9%)

    Выравнивание : Разделение по промежуткам

    Продолжительность промежутка : 40 мс. (1,00 видеокадр)

    Время предзагрузки промежутка : 500 мс.

    Время раздачи: 24/7 - круглосуточно до 10 скачавших

    Шофёр поневоле (1958) смотреть онлайн или скачать фильм через торрент

    Шофёр поневоле (1958)

    Дата выхода в России (или в Мире): 28.07.1958

    Ехали в отпуск руководитель главка и его шофер. И так случилось, что шофер попал в больницу с радикулитом и документами своего начальника. Тут-то все и началось…

    Название фильма Название антологии

    Для просмотра скриншотов нажмите на описание торрента!

    Скачать торрент шофер поневоле Скачать торрент шофер поневоле Скачать торрент шофер поневоле Скачать торрент шофер поневоле Скачать торрент шофер поневоле

    Фильмы похожие на Шофёр поневоле

    Видео кодек: XviD

    Аудио кодек: AC3

    Видео: 688x544@734x544 (4:3), 25 fps, XviD

    Шофер поневоле

    скачать торрент шофер поневоле

    Год выпуска : 1958

    Продолжительность : 93 минуты

    В ролях : Антоний Ходурский, Мария Миронова ст., Сергей Филиппов, Лилия Гриценко, Ирина Зарубина, Вера Карпова, Юрий Соловьев, Павел Суханов, Петр Алейников, Анатолий Абрамов, Людмила Волынская, Гликерия Богданова-Чеснокова, Светлана Мазовецкая, Владимир Волчик, Иван Селянин, Владислав Ковальков, Лев Степанов, Мария Самойлова, Анна Сергеева, Александра Матвеева

    Описание : Однажды ранним летним утром руководитель Главка Пастухов и его шофёр Саврасов отправились на машине в отпуск. На первом же привале у Саврасова случился острый приступ радикулита. Закутав своего спутника в свой пиджак, Пастухов довозит водителя до больницы, где того по документам в пиджаке принимают за начальника Главка. А сам Пастухов с трудом добирается до райцентра, испытав по дороге множество неудобств и несуразиц, которые стали результатом деятельности работников его Главка.

    Шофёр поневоле (1958) DVDRip от New-Team, Скачать Торрент

    Шофёр поневоле (1958) DVDRip от New-Team | Скачать Торрент Размер файлов в торренте: 1.46 GB

    Год выпуска: 1958

    Перевод: не требуется

    Оригинальная аудиодорожка: русский

    Режиссер: Надежда Кошеверова

    В ролях: Антоний Ходурский, Мария Миронова, Сергей Филиппов, Лилия Гриценко, Ирина Зарубина, Вера Карпова, Юрий Соловьев, Павел Суханов, Петр Алейников, Анатолий Абрамов.

    Ехали в отпуск руководитель главка и его шофер. И так случилось, что шофер попал в больницу с радикулитом и документами своего начальника. Тут-то все и началось…

    Исходник: DVD5 R5

    Тип релиза: DVDRip

    Видео: 688x512 (4:3), 25 fps, XviD

    2176 kbps avg, 0.247 bit/pixel

    Аудио: 48 kHz, Dolby AC3 2.0, 192 kbps

    Схожие торренты:

    У нас вы можете не только скачать фильмы через торрент или скачать сериалы через торрент, но также скачать торренты музыки, торренты игр, торренты программ и даже торрент файлы книг. Быстрый поиск среди огромного числа торрент файлов позволит в считанные секунда найти интересующие вас торрент файлы фильмов, торрент файлы музыки, торренты программ, книг и игр для компьютеров. Огромная коллекция новых фильмов и последних серий популярных сериалов. На сайте находятся фильмы 1080p, фильмы 720p, 3d фильмы. Все фильмы с качественными и профессиональными переводами.

    Это значит, что мы не храним никаких нелегальных материалов, а так же материалов охраняемых авторским правом.