File-Portal

приключения адибу скачать торрент

Рейтинг: 4.0/5.0 (227 проголосовавших)

Категория: Торрент-файлы

Описание

Скачать мультфильм Невероятные приключения в теле человека

Скачать мультфильм Невероятные приключения в теле человека. Часть 1+2 / Adiboo Adventure[2004, Мультсериал] - торрент

Скачать мультфильм бесплатно через торрент. Мультфильм доступен на нашем торрент-трекере бесплатно, без регистрации и смс.

Приключения адибу скачать торрент

Перевод: Русский Закадровый перевод + английская дорожка cубтитры: отсутствуют

Формат: TVRip, AVI, XviD, MP3

Страна: Tele Images Kids. Coktel Studio

Режиссер: Эрик Бастьер / Eric Bastier

Продолжительность: 01:40:21.520 (150538 frames) + 01:40:23.359 (150584 frames)

Описание: Волшебный мальчик Адибу и его друг Робиток переносятся в тело человека, чтобы исследовать, как работают все органы и системы. Вместе с ними мы переживем фантастическое приключение и узнаем много нового и полезного. Ведь человек - одна из самых больших загадок природы.

Рейтинг на IMDB: 6.0/10 62 votes

Видео: 688x512 (1.34:1), 25 fps, DivX Codec 5.x or 6.x

приключения адибу скачать торрент:

  • скачать
  • скачать
  • Другие статьи

    Сериал Приключения Адибу: Миссия на планете Земля

    • Приключения адибу скачать торрент
    • Приключения адибу скачать торрент
    • Приключения адибу скачать торрент
    • Приключения адибу скачать торрент
    • Приключения адибу скачать торрент
    • Приключения адибу скачать торрент
    • Приключения адибу скачать торрент
    • Приключения адибу скачать торрент
    • Приключения адибу скачать торрент
    • Приключения адибу скачать торрент
    • Приключения адибу скачать торрент
    • Приключения адибу скачать торрент
    • Приключения адибу скачать торрент
    • Приключения адибу скачать торрент
    • Приключения адибу скачать торрент
    • Приключения адибу скачать торрент
    • Приключения адибу скачать торрент
    • Приключения адибу скачать торрент
    • Приключения адибу скачать торрент
    • Приключения адибу скачать торрент
    • Приключения адибу скачать торрент
    • Приключения адибу скачать торрент
    • Приключения адибу скачать торрент
    • Приключения адибу скачать торрент
    • Приключения адибу скачать торрент
    • Приключения адибу скачать торрент
    • Приключения адибу скачать торрент
    • Приключения адибу скачать торрент
    • Приключения адибу скачать торрент
    • Приключения адибу скачать торрент
    • Приключения адибу скачать торрент
    • Приключения адибу скачать торрент
    • Приключения адибу скачать торрент
    • Приключения адибу скачать торрент
    • Приключения адибу скачать торрент
    • Приключения адибу скачать торрент
    • Приключения адибу скачать торрент
    • Приключения адибу скачать торрент
    • Приключения адибу скачать торрент
    • Приключения адибу скачать торрент
    • Приключения адибу скачать торрент
    • Приключения адибу скачать торрент
    • Приключения адибу скачать торрент
    • Приключения адибу скачать торрент
    • Приключения адибу скачать торрент
    • Приключения адибу скачать торрент
    • Приключения адибу скачать торрент
    • Приключения адибу скачать торрент

    Приключения Адибу: Миссия на планете Земля — Adiboo Adventure: Mission Earth (2008)

    Приключения адибу скачать торрент

    Год выпуска: 2008

    Жанр: мультфильм, детский

    Продолжительность: 1 сезон

    Перевод: Профессиональный (Дублированный)

    Режиссер: Эрик Казес

    В ролях: Вейн Скотт, Кейт Лок

    Описание Сериала: При просмотре мультфильма «Приключения Адибу: Миссия на планете Земля» зрителю предстоит встреча с необычным главным героем — инопланетянином Адибу. Он очень любознательный и постоянно задает самому себе различные вопросы. К счастью для зрителей, Адибу настолько умен, что на многие из них умеет найти ответ. Владея сверхъестественными способностями, главный герой путешествует по нашей красивой и загадочной для него планете. Космический корабль, на котором путешествует пришелец, позволяет Адибу проникнуть в самые что ни есть отдаленные уголки и недоступные места на нашей планете.

    А Земля, действительно, хранит в себе огромное количество загадок и тайн, встретить которые можно на каждом шагу. Вот только люди не обращают на них внимания, а Адибу и его помощнику роботу все это интересно.

    Обо всех удивительных открытиях умного пришельца и его помощника-робота могут узнать и зрители, отдавшие предпочтение просмотру этого мультфильма. Так сколько еще интересного и неизведанного хранит в себе наша планета? Ответ на этот вопрос можно получить, посмотрев все серии этого поучительного и познавательного мультфильма, дарящего только положительные эмоции. И взрослые, и дети после его просмотра обогатятся новыми знаниями, которые помогут и в школе, и в жизни.

    Поделиться ссылкой в социальных сетях:

    Скачать Приключения Адибу: Миссия на планете Земля

    Приключения Адибу: Миссия на планете Земля / Adiboo adventure: Mission Earth (2008) SATRip [48 серии из 52]

    Стаж: 3 года 11 месяцев

    Приключения адибу скачать торрент

    24-Май-2014 06:28

    Приключения адибу скачать торрент

    Жанр: Детский, Приключения

    Адибу – очень любознательный инопланетянин. Он постоянно задает себе вопросы. К счастью для нас, он знает, как найти ответы! Используя свои сверхъестественные способности, Адибу путешествует по нашей планете. Мы отправляемся вместе с Адибу и его другом-роботом в фантастическое и полное открытий путешествие на борту космического корабля. Этот развлекательно-познавательный мультсериал будет интересен всей семье. Пока только 48 серий

    Режиссер: Эрик Бастье

    Персонажи: Адибу, Робиток

    Продолжительность: 48 х 00:06:30

    Автор перевода: ВГТРК

    Видео: 640x480, 4:3,

    Аудио: MP3, 2 ch, 192 kbps

    Список серий

    2. Что такое гейзер ?

    3. Что такое гроза ?

    4. Что такое коралл?

    5. Что такое лавина ?

    6. Что такое мох ?

    7. Что такое нефть ?

    8. Что такое озеро ?

    9. Как образуются льдины ?

    10. Как устрицы делают жемчуг ?

    11. Как возникают ягоды ?

    12. Что такое иглу ?

    13. Что такое пыльца ?

    14. Что такое гром ?

    15. Что такое мираж ?

    16. Что такое оазис ?

    17. Если в море пресная вода ?

    18. Откуда берется соль ?

    19. Куда уходит дождевая вода ?

    20. Откуда берется песок ?

    21. Что вылетает из вулкана ?

    22. Что такое ледник ?

    23. Что такое компост ?

    24. Что такое снег ?

    25. Что такое пещера ?

    26. Что такое торнадо ?

    27. От чего дует ветер ?

    28. Что такое вулкан ?

    29. Что находится внутри земли ?

    30. От чего трясется земля ?

    31. Как растут грибы ?

    32. Зачем елкам иголки ?

    33. Зачем нужны водоросли ?

    34. Зачем нужен вулканический пепел ?

    35. как растут деревья ?

    36. Откуда берутся горы ?

    37. Как очищается море ?

    38. Почему море синее ?

    39. Что такое дикие плоды ?

    40. Почему небо синее ?

    41. Почему листья зеленые ?

    42. Зачем ежевике шипы ?

    43. Что такое морские течения ?

    44. Что такое айсберг ?

    45. Что такое окаменелость ?

    46. Зачем нужны кораллы ?

    47. Что такое радуга ?

    48. Откуда берутся облака ?

    04.02.2014 - продолжение 23-48 серии.

    Формат/Информация : Audio Video Interleave

    Размер файла : 126 Мбайт

    Продолжительность : 6 м. 29 с.

    Общий поток : 2710 Кбит/сек

    Программа кодирования : Lavf51.12.1

    Идентификатор кодека : xvid

    Продолжительность : 6 м. 29 с.

    Битрейт : 2505 Кбит/сек

    Ширина : 640 пикс.

    Высота : 480 пикс.

    Соотношение сторон : 4:3

    Частота кадров : 25,000 кадр/сек

    Размер потока : 116 Мбайт (92%)

    Формат : MPEG Audio

    Версия формата : Version 1

    Профиль формата : Layer 3

    Режим : Joint stereo

    Расширение режима : MS Stereo

    Идентификатор кодека : 55

    Идентификатор кодека/Подсказка : MP3

    Продолжительность : 6 м. 29 с.

    Вид битрейта : Постоянный

    Битрейт : 192 Кбит/сек

    Каналы : 2 канала

    Частота : 48,0 КГц

    Метод сжатия : С потерями

    Размер потока : 8,92 Мбайт (7%)

    Выравнивание : Соединение по промежуткам

    Продолжительность промежутка : 24 мс. (0,60 видеокадр)

    Время предзагрузки промежутка : 24 ms

    Приключения адибу скачать торрент Приключения адибу скачать торрент Приключения адибу скачать торрент Приключения адибу скачать торрент Приключения адибу скачать торрент Приключения адибу скачать торрент Приключения адибу скачать торрент Приключения адибу скачать торрент

    Время раздачи: с 8:00 до 17:00 по будням

    Текущее время: Сегодня 01:12

    Часовой пояс: GMT + 4

    Вы не можете отвечать на сообщения

    Вы не можете редактировать свои сообщения

    Вы не можете удалять свои сообщения

    Вы не можете голосовать в опросах

    Вы не можете прикреплять файлы к сообщениям

    Вы можете скачивать файлы

    Search Powered by Sphinx

    Powered by TorrentPier II © Meithar, TorrentPier II Team

    Приключения Адибу: Миссия на планете Земля

    Приключения Адибу: Миссия на планете Земля / Adiboo adventure: Mission Earth (2008) SATRip [48 серии из 52]

    Приключения адибу скачать торрент

    Поблагодарил(а): 170 раз(а)"> 62.27%

    Жанр: Детский, Приключения

    Адибу – очень любознательный инопланетянин. Он постоянно задает себе вопросы. К счастью для нас, он знает, как найти ответы! Используя свои сверхъестественные способности, Адибу путешествует по нашей планете. Мы отправляемся вместе с Адибу и его другом-роботом в фантастическое и полное открытий путешествие на борту космического корабля. Этот развлекательно-познавательный мультсериал будет интересен всей семье. Пока только 48 серий

    Персонажи: Адибу, Робиток

    Автор перевода: ВГТРК

    Видео: 640x480, 4:3,

    Аудио: MP3, 2 ch, 192 kbps

    2. Что такое гейзер ?

    3. Что такое гроза ?

    4. Что такое коралл?

    5. Что такое лавина ?

    6. Что такое мох ?

    7. Что такое нефть ?

    8. Что такое озеро ?

    9. Как образуются льдины ?

    10. Как устрицы делают жемчуг ?

    11. Как возникают ягоды ?

    12. Что такое иглу ?

    13. Что такое пыльца ?

    14. Что такое гром ?

    15. Что такое мираж ?

    16. Что такое оазис ?

    17. Если в море пресная вода ?

    18. Откуда берется соль ?

    19. Куда уходит дождевая вода ?

    20. Откуда берется песок ?

    21. Что вылетает из вулкана ?

    22. Что такое ледник ?

    24. Что такое снег ?

    25. Что такое пещера ?

    26. Что такое торнадо ?

    27. От чего дует ветер ?

    28. Что такое вулкан ?

    29. Что находится внутри земли ?

    30. От чего трясется земля ?

    31. Как растут грибы ?

    32. Зачем елкам иголки ?

    33. Зачем нужны водоросли ?

    34. Зачем нужен вулканический пепел ?

    35. как растут деревья ?

    36. Откуда берутся горы ?

    37. Как очищается море ?

    38. Почему море синее ?

    39. Что такое дикие плоды ?

    40. Почему небо синее ?

    41. Почему листья зеленые ?

    42. Зачем ежевике шипы ?

    43. Что такое морские течения ?

    44. Что такое айсберг ?

    45. Что такое окаменелость ?

    46. Зачем нужны кораллы ?

    47. Что такое радуга ?

    48. Откуда берутся облака ?

    Формат/Информация : Audio Video Interleave

    Размер файла : 126 Мбайт

    Продолжительность : 6 м. 29 с.

    Общий поток : 2710 Кбит/сек

    Программа кодирования : Lavf51.12.1

    Идентификатор кодека : xvid

    Продолжительность : 6 м. 29 с.

    Битрейт : 2505 Кбит/сек

    Ширина : 640 пикс.

    Высота : 480 пикс.

    Соотношение сторон : 4:3

    Частота кадров : 25,000 кадр/сек

    Размер потока : 116 Мбайт (92%)

    Формат : MPEG Audio

    Версия формата : Version 1

    Профиль формата : Layer 3

    Режим : Joint stereo

    Расширение режима : MS Stereo

    Идентификатор кодека : 55

    Идентификатор кодека/Подсказка : MP3

    Продолжительность : 6 м. 29 с.

    Вид битрейта : Постоянный

    Битрейт : 192 Кбит/сек

    Каналы : 2 канала

    Частота : 48,0 КГц

    Метод сжатия : С потерями

    Размер потока : 8,92 Мбайт (7%)

    Выравнивание : Соединение по промежуткам

    Продолжительность промежутка : 24 мс. (0,60 видеокадр)

    Приключения Адибу: Миссия на планете Земля — Adiboo Adventure: Mission Earth (2008) Смотреть Сериал онлайн или Cкачать торрент бесплатно

    Сериал Приключения Адибу: Миссия на планете Земля — Adiboo Adventure: Mission Earth (2008)

    Приключения адибу скачать торрент

    Год выпуска : 2008

    Жанр : мультфильм, детский

    Продолжительность : 1 сезон

    Перевод : Профессиональный (Дублированный)

    В ролях : Вейн Скотт, Кейт Лок

    Описание Сериала : При просмотре мультфильма «Приключения Адибу: Миссия на планете Земля» зрителю предстоит встреча с необычным главным героем – инопланетянином Адибу. Он очень любознательный и постоянно задает самому себе различные вопросы. К счастью для зрителей, Адибу настолько умен, что на многие из них умеет найти ответ. Владея сверхъестественными способностями, главный герой путешествует по нашей красивой и загадочной для него планете. Космический корабль, на котором путешествует пришелец, позволяет Адибу проникнуть в самые что ни есть отдаленные уголки и недоступные места на нашей планете.

    А Земля, действительно, хранит в себе огромное количество загадок и тайн, встретить которые можно на каждом шагу. Вот только люди не обращают на них внимания, а Адибу и его помощнику роботу все это интересно.

    Обо всех удивительных открытиях умного пришельца и его помощника-робота могут узнать и зрители, отдавшие предпочтение просмотру этого мультфильма. Так сколько еще интересного и неизведанного хранит в себе наша планета? Ответ на этот вопрос можно получить, посмотрев все серии этого поучительного и познавательного мультфильма, дарящего только положительные эмоции. И взрослые, и дети после его просмотра обогатятся новыми знаниями, которые помогут и в школе, и в жизни.