File-Portal

млп 6 сезон скачать торрент

Рейтинг: 4.1/5.0 (337 проголосовавших)

Категория: Торрент-файлы

Описание

Мой Маленький Пони: Дружба - это чудо

млп 6 сезон скачать торрент

Добавлено: 28 июн 2017

Перевод: Профессиональный (полное дублирование, от телеканала "Карусель", 1-6 сезоны), Любительский (многоголосый закадровый, Трина Дубовицкая, Jade и ALEKS KV 1-7 серии 7-го сезона), Любительский (одноголосный, закадровый, ALEKS KV, 8-9 серии 7-го сезона)

Субтитры: русский, английский (сезоны 4 - 7)

Оригинальная аудиодорожка: английский (сезоны 4 - 7)

Формат: DVDRip-AVC, MKV, MPEG-4 AVC, AC3

Режиссер: Джейсон Тиссен, Джеймс Вуттон, Джим Миллер

Жанр: мультфильм, фэнтези, комедия, семейный

Дублировали: Елена Чебатуркина, Татьяна Весёлкина.

которая всё время сидела за книгами и не желала ни с кем общаться. Видя, как героиня зарылась с головой в учёбу,

принцесса даёт ей задание найти друзей и отправляет Искорку и её ассистента, дракона по имени Спайк, в Понивилль.

Там она встречает разных пони, своих новых друзей: задиристую Радугу, элегантную Рарити, трудолюбивую Эпплджек,

робкую Флаттершай и гиперактивную Пинки Пай. Вместе они исследуют город, решают проблемы жителей и

находят новых друзей. Каждый раз, когда Искорка узнаёт что-то новое о дружбе, она

сообщает об этом Селестии.

1808 kbps avg, 0.174 bit/pixel (сезоны 1 - 3)

Видео 2: 1024x576 (16:9), 23.976 fps, MPEG-4 AVC

1808 kbps avg, 0.128 bit/pixel (сезоны 4 - 7)

Аудио 1: 48 kHz, Dolby AC3 2.0 192 kbps, русский (сезоны 1 - 6), английский (сезоны 4 - 5)

Аудио 2: 48 kHz, Dolby AC3 5.1 384 kbps, русский (сезон 7), английский (сезоны 6 - 7)

Формат субтитров: SoftSub (ass)

01. Магия дружбы: Часть 1 / Friendship Is Magic, Part 1 (Mare in the Moon), 2 января 2012

02. Магия дружбы: Часть 2 / Friendship Is Magic, Part 2 (Elements of Harmony), 22 октября 2010

03. Приглашение на бал / The Ticket Master, 29 октября 2010

04. Сбор урожая / Applebuck Season, 5 ноября 2010

05. Заносчивый грифон / Griffon the Brush Off, 12 ноября 2010

06. Хвастунишка / Boast Busters, 19 ноября 2010

07. Укрощение дракона / Dragonshy, 26 ноября 2010

08. Единство противоположностей / Look Before You Sleep, 3 декабря 2010

09. У страха глаза велики / Bridle Gossip, 10 декабря 2010

10. Незваные гости / Swarm of the Century, 17 декабря 2010

11. Последний день зимы / Winter Wrap Up, 24 декабря 2010

12. Отличительные знаки / Call of the Cutie, 7 января 2011

13. Осенний забег / Fall Weather Friends, 28 января 2011

14. Рождённая для успеха / Suited for Success, 4 февраля 2011

15. Интуиция Пинки / Feeling Pinkie Keen, 11 февраля 2011

16. Звуковая радуга / Sonic Rainboom, 18 февраля 2011

17. Мастер взгляда / Stare Master, 25 февраля 2011

18. Шоу талантов / The Show Stoppers, 4 марта 2011

19. Искатели драгоценностей / A Dog and Pony Show, 11 марта 2011

20. Секреты дружбы / Green Isn't Your Color, 18 марта 2011

21. Яблоки раздора / Over a Barrel, 25 марта 2011

22. Птица Феникс / A Bird in the Hoof, 8 апреля 2011

23. История знаков отличия / The Cutie Mark Chronicles, 15 апреля 2011

24. Попытка ревности / Owl's Well That Ends Well, 22 апреля 2011

25. День рождения / Party of One, 29 апреля 2011

26. Самый лучший вечер / The Best Night Ever, 6 мая 2011

01. Возвращение гармонии: Часть 1 / The Return of Harmony, Part 1, 17 сентября 2011

02. Возвращение гармонии: Часть 2 / The Return of Harmony, Part 2, 24 сентября 2011

03. Нулевой урок / Lesson Zero, 15 октября 2011

04. Затмение Луны / Luna Eclipsed, 22 октября 2011

05. Настоящие сёстры / Sisterhooves Social, 5 ноября 2011

06. Загадочная лихорадка / The Cutie Pox, 12 ноября 2011

07. Пусть лучший победит! / May the Best Pet Win!, 19 ноября 2011

08. Таинственный защитник / The Mysterious Mare Do Well, 26 ноября 2011

09. Пони из высшего общества / Sweet and Elite, 3 декабря 2011

10. Секрет моего роста / Secret of My Excess, 10 декабря 2011

11. Канун Дня горящего очага / Hearth's Warming Eve, 17 декабря 2011

12. День семьи / Family Appreciation Day, 7 января 2012

13. Новорожденные пони / Baby Cakes, 14 января 2012

14. Пропажа / The Last Roundup, 21 января 2012

15. Сверхскоростная соковыжималка 6000 / The Super Speedy Cider Squeezy 6000, 28 января 2012

16. Читай и наслаждайся / Read It and Weep, 4 февраля 2012

17. День сердец и копыт / Hearts and Hooves Day, 11 февраля 2012

18. Настоящий друг / A Friend in Deed, 18 февраля 2012

19. Настоять на своём / Putting Your Hoof Down, 3 марта 2012

20. Давно пора / It's About Time, 10 марта 2012

21. Поиски дракона / Dragon Quest, 17 марта 2012

22. Ураган Флаттершай / Hurricane Fluttershy, 24 марта 2012

23. Секреты и тайны Понивилля / Ponyville Confidential, 31 марта 2012

24. Загадочное преступление в поезде Дружбы / MMMystery on the Friendship Express, 7 апреля 2012

25. Свадьба в Кантерлоте: Часть 1 / A Canterlot Wedding - Part 1, 21 апреля 2012

26. Свадьба в Кантерлоте: Часть 2 / A Canterlot Wedding - Part 2, 21 апреля 2012

01. Кристальная Империя: Часть 1 / The Crystal Empire - Part 1, 10 ноября 2012

02. Кристальная Империя: Часть 2 / The Crystal Empire - Part 2, 10 ноября 2012

03. Слишком много Пинки Пай / Too Many Pinkie Pies, 17 ноября 2012

04. Плохое яблоко / One Bad Apple, 24 ноября 2012

05. Магическая дуэль / Magic Duel, 1 декабря 2012

06. Неспящие в Понивилле / Sleepless in Ponyville, 8 декабря 2012

07. Академия Чудо-молний / Wonderbolts Academy, 15 декабря 2012

08. Слет семьи Эппл / Apple Family Reunion, 22 декабря 2012

09. Спайк к вашим услугам / Spike at Your Service, 29 декабря 2012

10. Перевоспитание в доме Флаттершай / Keep Calm and Flutter On, 19 января 2013

11. Только для любимцев / Just for Sidekicks, 26 января 2013

12. Игры, в которые играют пони / Games Ponies Play, 9 февраля 2013

13. Загадочное волшебное лекарство / Magical Mystery Cure, 16 февраля 2013

01. Сумеречная принцесса: Часть 1 / Princess Twilight Sparkle: Part 1, 23 ноября 2013

02. Сумеречная принцесса: Часть 2 / Princess Twilight Sparkle: Part 2, 23 ноября 2013

03. Замкомания / Castle Mane-ia, 30 ноября 2013

04. Дерзкое нет / Daring Don't, 7 декабря 2013

05. Полет к финишу / Flight to the Finish, 14 декабря 2013

06. Могучие пони / Power Ponies, 21 декабря 2013

07. Летучие мыши! / Bats!, 28 декабря 2013

08. Рарити захватывает Мейнхэттен / Rarity Takes Manehattan, 4 января 2014

09. Яблочный пирог Пинки / Pinkie Apple Pie, 11 января 2014

10. Водопады Рейнбоу / Rainbow Falls, 18 января 2014

11. Трое - уже толпа / Three's a Crowd, 25 января 2014

12. Гордость Пинки / Pinkie Pride, 1 февраля 2014

13. Простые способы / Simple Ways, 8 февраля 2014

14. Филли Ванилли / Filli Vanilli, 15 февраля 2014

15. Время сумерек / Twilight Time, 22 февраля 2014

16. Это не легко - быть Бризи / It Ain't Easy Being Breezies, 1 марта 2014

17. Пони, который будет меня беречь / Somepony to Watch Over Me, 8 марта 2014

18. Мод Пай / Maud Pie, 15 марта 2014

19. Для кого трудится Крошка Белль / For Whom the Sweetie Belle Toils, 22 марта 2014

20. Прыжок веры / Leap of Faith, 29 марта 2014

21. Проверка, проверка, 1, 2, 3 / Testing, Testing, 1, 2, 3, 5 апреля 2014

22. Махнемся не глядя / Trade Ya, 19 апреля 2014

23. Проявление вдохновения / Inspiration Manifestation, 26 апреля 2014

24. Эквестрийские игры / Equestria Games, 3 мая 2014

25. Королевство Твайлайт: Часть 1 / Twilight's Kingdom - Part 1, 10 мая 2014

26. Королевство Твайлайт: Часть 2 / Twilight's Kingdom - Part 2, 10 мая 2014

01. Прелестная карта: Часть 1 / The Cutie Map: Part 1, 4 апреля 2015

02. Прелестная карта: Часть 2 / The Cutie Map: Part 2, 4 апреля 2015

03. Замок, милый замок / Castle Sweet Castle, 11 апреля 2015

04. Блум и мрак / Bloom & Gloom, 18 апреля 2015

05. Танк и воспоминания / Tanks for the Memories, 25 апреля 2015

06. Самый опасный разбойник в Эпплузе / Appleoosa's Most Wanted, 2 мая 2015

07. Новый друг, Дискорда недуг / Make New Friends But Keep Discord, 16 мая 2015

08. Потерянное сокровище Грифонстоуна / The Lost Treasure of Griffonstone, 23 мая 2015

09. Повседневность / Slice of Life, 13 июня 2015

10. Принцесса Спайк / Princess Spike, 20 июня 2015

11. Вечеринка обломалась / Party Pooped, 27 июня 2015

12. Заглаживание вины / Amending Fences, 4 июля 2015

13. Снятся ли принцессам волшебные овцы? / Do Princesses Dream of Magic Sheep?, 11 июля 2015

14. Бутик в Кантерлоте / Canterlot Boutique, 12 сентября 2015

15. Рарити расследует / Rarity Investigates!, 19 сентября 2015

16. Сделано в Мэйнхэттене / Made in Manehattan, 26 сентября 2015

17. Братское единение / Brotherhooves Social, 3 октября 2015

18. В поисках утраченной метки / Crusaders of the Lost Mark, 10 октября 2015

19. Пинки Пай кое-что знает / The One Where Pinkie Pie Knows, 17 октября 2015

20. Разрушители сердец / Hearthbreakers, 24 октября 2015

21. Мастер испуга / Scare Master, 31 октября 2015

22. А как же Дискорд? / What About Discord?, 7 ноября 2015

23. Хуффилды и МакКольты / The Hooffields and McColts, 14 ноября 2015

24. Гривое развлечение / The Mane Attraction, 21 ноября 2015

25. Кьюти Ремарка: Часть 1 / The Cutie Re-Mark Part 1, 28 ноября 2015

26. Кьюти Ремарка: Часть 2 / The Cutie Re-Mark Part 2, 28 ноября 2015

01. Кристаллизация: Часть 1 / The Crystalling, Part 1, 26 марта 2016

02. Кристаллизация: Часть 2 / The Crystalling, Part 2, 26 марта 2016

03. Подарок для Мод-Пай / The Gift of the Maud Pie, 2 апреля 2016

04. На старт / On Your Marks?, 9 апреля 2016

05. Перчатка дракона / Gauntlet of Fire, 16 апреля 2016

06. Никаких вторых прыжков / No Second Prances, 30 апреля 2016

07. Новичок Деш / Newbie Dash, 7 мая 2016

08. Сказка дня согревающего очага / A Hearth's Warming Tail, 14 мая 2016

09. Сёдла оптом и в розницу / The Saddle Row Review, 21 мая 2016

10. Выходной для Эпплджек / Applejack's "Day" Off, 28 мая 2016

11. Брат Флаттершай / Flutter Brutter, 4 июня 2016

12. Приправьте вашу жизнь / Spice Up Your Life, 11 июня 2016

13. Незнакомец / Stranger Than Fan Fiction, 30 июля 2016

14. Телега впереди пони / The Cart Before the Ponies, 6 августа 2016

15. 28 шалостей, попозже / 28 Pranks Later, 13 августа 2016

16. Шпион-перевертыш / The Times They Are a Changeling, 20 августа 2016

17. Подземелье и Дискорд / Dungeons & Discords, 27 августа 2016

18. Сезон бакбола / Buckball Season, 3 сентября 2016

19. Вина меткоискателей / The Fault in Our Cutie Marks, 7 сентября 2016

20. Живой Лас Пегасус / Viva Las Pegasus, 17 сентября 2016

21. Сомнительные результаты / Every Little Thing She Does, 24 сентября 2016

22. Точка зрения пони / P.P.O.V. (Pony Point of View), 1 октября 2016

23. Где яблоко лежит / Where the Apple Lies, 8 октября 2016

24. Вандерболты / Top Bolt, 10 октября 2016

25. Туда и обратно: Часть 1 / To Where and Back Again: Part 1, 6 октября 2016

26. Туда и обратно: Часть 2 / To Where and Back Again: Part 2, 7 октября 2016

01. Великолепный совет / Celestial Advice, 15 апреля 2017

02. Чаша терпения / All Bottled Up, 15 апреля 2017

03. Всплеск эмоций / A Flurry of Emotions, 22 апреля 2017

04. Друзья - не разлей вода / Rock Solid Friendship, 29 апреля 2017

05. Флаттершай полагается на. / Fluttershy Leans In, 6 мая 2017

06. Малышка навсегда / Forever Filly, 13 мая 2017

07. Родительский переполох / Parental Glideance, 20 мая 2017

08. Как трудно сказать что-нибудь / Hard to Say Anything, 27 мая 2017

09. Честная Эппл / Honest Apple, 3 июня 2017

Внимание! Раздача ведётся путём добавления новых серий; при каждом добавлении создаётся новый торрент-файл. Чтобы начать докачку новой серии, пользователям необходимо сделать следующее:

(1) остановить скачивание;

(2) удалить старый торрент-файл у себя из клиента (старые серии удалять не надо);

(3) скачать новый торрент-файл и запустить его у себя в клиенте вместо старого, при этом указать клиенту путь в старую папку куда и должно происходить скачивание новых серий.

Ваш клиент при этом должен произвести хеширование (проверку) старой папки (если он не производит проверку сам – помогите ему сделать это), и будет докачивать только те серии которых у вас ещё нет. Старые серии при этом не удаляются, а продолжают раздаваться!

Если вы уже удалили старые серии, то предотвратить повторную закачку старых серий можно, отжав галочку в соответствующих местах при запуске нового торрент-файла. Желательно старые серии не удалять как можно дольше, чтобы релизёр не столько продолжал раздавать старые серии, а смог сконцентрироваться на новых.

Format version : Version 4 / Version 2

File size : 302 MiB

Duration : 21mn 6s

Overall bit rate : 2 002 Kbps

Encoded date : UTC 2015-12-31 00:49:10

Writing application : mkvmerge v8.6.1 ('Flying') 64bit

Writing library : libebml v1.3.3 + libmatroska v1.4.4

Format/Info : Advanced Video Codec

Format settings, CABAC : Yes

Format settings, ReFrames : 8 frames

Codec ID : V_MPEG4/ISO/AVC

Duration : 21mn 6s

Bit rate : 1 808 Kbps

Width : 720 pixels

Height : 576 pixels

Display aspect ratio : 16:9

Frame rate mode : Constant

Frame rate : 25.000 fps

Color space : YUV

Chroma subsampling : 4:2:0

Bit depth : 8 bits

Scan type : Progressive

Stream size : 273 MiB (90%)

Writing library : x264 core 148 r2597 e86f3a1

Encoding settings : cabac=1 / ref=8 / deblock=1:-2:-1 / analyse=0x3:0x113 / me=umh / subme=10 / psy=1 / psy_rd=1.00:0.05 / mixed_ref=1 / me_range=32 / chroma_me=1 / trellis=2 / 8x8dct=1 / cqm=0 / deadzone=21,11 / fast_pskip=0 / chroma_qp_offset=-3 / threads=6 / lookahead_threads=1 / sliced_threads=0 / nr=0 / decimate=0 / interlaced=0 / bluray_compat=0 / constrained_intra=0 / bframes=8 / b_pyramid=2 / b_adapt=2 / b_bias=0 / direct=3 / weightb=1 / open_gop=0 / weightp=2 / keyint=250 / keyint_min=25 / scenecut=40 / intra_refresh=0 / rc=2pass / mbtree=0 / bitrate=1808 / ratetol=1.0 / qcomp=0.60 / qpmin=0 / qpmax=69 / qpstep=4 / cplxblur=20.0 / qblur=0.5 / ip_ratio=1.40 / pb_ratio=1.30 / aq=1:1.00

Format/Info : Audio Coding 3

Format profile : Dolby Digital

Mode extension : CM (complete main)

Format settings, Endianness : Big

Codec ID : A_AC3

Duration : 21mn 6s

Bit rate mode : Constant

Bit rate : 192 Kbps

Channel(s) : 2 channels

Channel positions : Front: L R

Sampling rate : 48.0 KHz

Frame rate : 31.250 fps (1536 spf)

Compression mode : Lossy

Stream size : 29.0 MiB (10%)

Торрент обновлен 6 июня 2017 года года. Добавлены 3 серии 7-го сезона, русская дорожка в 7-м сезоне заменена на многоголосую в 1-7 сериях

млп 6 сезон скачать торрент:

  • скачать
  • скачать
  • Другие статьи

    Скачать бесплатно - Мой Маленький Пони: Дружба - это Чудо

    Мой Маленький Пони: Дружба - это Чудо / My Little Pony: Friendship Is Magic (Сезон 6, Серии с 01-18 (26)) [2016 / Комедия, Семейный, Фэнтези / WEB-DL 1080p] скачать торрент

    Млп 6 сезон скачать торрент Млп 6 сезон скачать торрент Млп 6 сезон скачать торрент

    ◈Мой Маленький Пони: Дружба - это Чудо / My Little Pony: Friendship Is Magic◈

    Страна: США, Канада

    Жанр: Комедия, Семейный, Фэнтези

    Перевод: Любительский (одноголосный закадровый) ALEKS KV

    Перевод: Любительский (многоголосный закадровый) Трина Дубовицкая, Jade & ALEKS KV

    Субтитры: Русские Anon2Anon

    Субтитры: Русские TheDoctorTeam

    Продолжительность: ТВ (26 эп.),

    Качество: WEB-DL 1080p

    Видео кодек: x264

    Видео: x264 8bit 1920x1080 23.976fps 5700Kbps

    русская: Dolby AC3 48000Hz --|5.1|--- 384Kbps [ALEKS KV] (Эпизоды 01-18)

    русская: Dolby AC3 48000Hz --|5.1|--- 384Kbps [Трина Дубовицкая, Jade & ALEKS KV] (Эпизоды 01-04,06-10)

    английская: Dolby AC3 48000Hz --|5.1|--- 384Kbps [Оригинал] (Эпизоды 01-18)

    Млп 6 сезон скачать торрент

    После скачивания данного торрента, просим вас оставить комментарий к данной раздаче «Мой Маленький Пони: Дружба - это Чудо / My Little Pony: Friendship Is Magic (Сезон 6, Серии с 01-18 (26)) [2016 / Комедия, Семейный, Фэнтези / WEB-DL 1080p]». И поделиться в социальных сетях.

    Ваш комментарий будет полезен пользователям нашего сайта, благодаря вашему комментарию, пользователю будет легче выбрать, скачать данный торрент, или лучше поискать что то другое.

    Скачать мультфильм Мой маленький пони: Дружба это чудо через торрент бесплатно - Мой маленький пони: Дружба это чудо скачать торрент хорошее качество

    Мой маленький пони: Дружба это чудо через торрент

    Млп 6 сезон скачать торрент

    (My Little Pony: Friendship Is Magic)

    Описание мультфильма Мой маленький пони: Дружба это чудо Мой маленький пони: Дружба это чудо трейлер Мой маленький пони: Дружба это чудо скачать торрент хорошее качество

    1808 Кбит/с, [email protected]

    Аудио: Русский, английский (AC3, 2 ch, 192 Кбит/с), (AC3, 6 ch, 384 Кбит/с)

    1808 kbps avg, 0.174 bit/pixel (сезоны 1 - 3)

    Видео 2: 1024x576 (16:9), 23.976 fps, MPEG-4 AVC

    1808 kbps avg, 0.128 bit/pixel (сезоны 4 - 7)

    Аудио 1: 48 kHz, Dolby AC3 2.0 192 kbps, русский (сезоны 1 - 6), английский (сезоны 4 - 5)

    Аудио 2: 48 kHz, Dolby AC3 5.1 384 kbps, русский (сезон 7), английский (сезоны 6 - 7)

    Формат субтитров: SoftSub (ass)

    Млп 6 сезон скачать торрент Млп 6 сезон скачать торрент

    1800 Кбит/с, 720x400

    Аудио: Русский, английский (AC3, 2 ch, 192 Кбит/с), (AC3, 6 ch, 384 Кбит/с)

    1800 kbps avg, 0.250 bit/pixel (сезоны 1 - 3)

    Видео 2: 720x400 (16:9), 23.976 fps, XviD

    1800 kbps avg, 0.261 bit/pixel (сезоны 4 - 7)

    Аудио 1: 48 kHz, Dolby AC3 2.0 192 kbps, русский (сезоны 1 - 6), английский (сезоны 4 - 5)

    Аудио 2: 48 kHz, Dolby AC3 5.1 384 kbps, русский (сезон 7), английский (сезоны 6 - 7)

    Мой маленький пони

    Мой маленький пони. Дружба - это чудо / My Little Pony: Friendship Is Magic / Сезон: 6 / Серии: 1-26 (26) (Джейсон Тиссен / Jayson Thiessen, Джеймс Вуттон / James Wootton) [2016, комедия, семейный, фэнтези, WEB-DLRip 720p] MVO

    Млп 6 сезон скачать торрент

    Стаж: 12 лет 3 месяца

    vitaly3 · 28-Мар-16 15:44 (1 год 5 месяцев назад, ред. 28-Апр-17 09:38)

    Жанр : комедия, семейный, фэнтези

    Серии : 1-26 (из 26)

    Год выпуска : 2016

    Перевод : Любительский (многоголосый закадровый) (Jade, ALEKS KV и Трина Дубовицкая)

    Русские субтитры : нет

    Режиссёр : Джейсон Тиссен / Jayson Thiessen, Джеймс Вуттон / James Wootton

    Роли озвучивали : Тара Стронг, Эшли Болл, Андреа Либман, Табита Сен-Джермейн и другие

    Описание : Долгожданный шестой сезон мультсериала про маленьких пони. Главная героиня - аликорн Твайлайт Спаркл, любимая ученица Принцессы Селестии, всё время сидела за книгами и считала, что друзья не нужны. Принцесса Селестия даёт ей задание найти друзей и посылает Твайлайт вместе с её помощником, драконом по имени Спайк, в небольшой городок Понивилль. Там она встречает своих новых друзей: задиристую Рейнбоу Дэш, модницу Рэрити, трудолюбивую Эпплджек, стеснительную Флаттершай и очень весёлую и непредсказуемую Пинки Пай. Вместе они решают все возникающие проблемы и идут к новым открытиям. Твайлайт и её друзья постоянно узнают что-то новое о дружбе.

    Качество : WEB-DLRip 720p (Исходник)

    Видео : AVC, 1280x720, 23.976 fps, 1500 kbps

    Аудио Rus : AC3, 48 kHz, 2 ch, 192 kbps

    Аудио Eng : AC3, 48 kHz, 2 ch, 192 kbps

    02. Кристаллизация, часть 2 (The Crystalling - Part 2)

    03. Подарок для Мод Пай (The Gift of Maud Pie)

    04. Твоя судьба (On Your Marks)

    05. Испытание огнем (Gauntlet of Fire)

    06. Нет второй попытки (No Second Prances)

    07. Новобранец Дэш (Newbie Dash)

    08. Сказка согревающего очага (A Hearth's Warming Tail)

    09. Обзор Седельного ряда (The Saddle Row Review)

    10. Выходной Эпплджек (Applejack's Day Off)

    11. Брат Флаттершай (Flutter Brutter)

    12. Добавь специй в свою жизнь (Spice Up Your Life)

    13. Страннее чем фанфик (Stranger Than Fan Fiction)

    14. Карт перед пони (The Cart Before the Ponies)

    15. 28 розыгрышей спустя (28 Pranks Later)

    16. Времена меняются (The Times They Are a Changeling)

    17. Подземелья и Дискорды (Dungeons and Discords)

    18. Бакбольный сезон (Buckball Season)

    19. Виноваты метки (The Fault in Our Cutie Marks)

    20. Вива Лас Пегас (Viva Las Pegasus)

    21. За всем не угонишься (Every Little Thing She Does)

    22. С точки зрения пони (P.P.O.V.) (Pony Point of View)

    23. Где скрывается правда (Where the Apple Lies)

    24. Высший пилотаж (Top Bolt)

    25. Туда и обратно, часть 1 (To Where and Back Again - Part 1)

    26. Туда и обратно, часть 2 (To Where and Back Again - Part 2)

    Скачать Мой Маленький Пони: Дружба - это Чудо

    Мой Маленький Пони: Дружба - это Чудо / My Little Pony: Friendship Is Magic (2016) WEB-DL [H.264/1080p- LQ] (сезон 6, эпизоды 01-26 из 26) [EN / RU,EN Sub]

    Пиры будут получены при скачивании

    Стаж: 3 года 11 месяцев

    Млп 6 сезон скачать торрент

    17-Янв-2017 23:47

    Млп 6 сезон скачать торрент

    Жанр: Детский, Приключения, Комедия

    Режиссер: Джим Миллер

    Роли озвучивали: Тара Стронг, Эшлин Бол, Клэр Корлетт, Мишель Кребер, Андреа Либман и другие

    Персонажи: Твайлайт Спаркл , Флатершай, Эплджек, Рарити, Рейнбоу Дэш, Пинки Пай и другие

    Шестой сезон мультсериала Мой Маленький Пони. Главная героиня - единорог аликорн Твайлайт Спаркл, любимая ученица Принцессы Селестии, - всё время сидела за книгами и считала, что друзья не нужны. Принцесса Селестия даёт ей задание найти друзей и посылает Твайлайт вместе с её помощником, драконом по имени Спайк, в небольшой городок Понивилль. Там она встречает своих новых друзей: задиристую Рэйнбоу Дэш, модницу Рэрити, трудолюбивую Эпплджек, стеснительную Флаттершай и очень весёлую и непредсказуемую Пинки Пай. Вместе они решают все возникающие проблемы и идут к новым открытиям. Твайлайт и шестеро её друзей постоянно узнают что-то новое о дружбе. Правда теперь друзей стало семеро - к шестерым подругам присоединилась Старлайт Глиммер. (И да, Спайк не пони, его традиционно не считают. )

    Возраст: 0+ (для любой зрительской аудитории)

    Рейтинг MPAA: G (нет возрастных ограничений)

    Дата мировой премьеры: 10 October 2010

    Релиз от: ShprotaNa

    Качество видео: WEB-DL

    Субтитры: Русские и Английские от sunnysubs (Anon2Anon) - 1-26 серия, Русские от The Doctor Team - 1-26 серия - субтитры отдельными файлами

    Видео: AVC/H.264, 1920x1080,

    Аудио: AC3, 6 ch, 384 kbps, CBR

    Mediainfo:

    Format version : Version 2

    File size : 900 MiB

    Duration : 22 min 8 s

    Overall bit rate : 5 679 kb/s

    Movie name : S06E26 : To Where and Back Again - Part 2

    Encoded date : UTC 2016-10-23 19:34:03

    Writing application : mkvmerge v4.0.0 ('The Stars were mine') сборка от Jun 6 2010 16:18:42

    Writing library : libebml v1.0.0 + libmatroska v1.0.0

    Format/Info : Advanced Video Codec

    Format settings, CABAC : Yes

    Format settings, ReFrames : 4 frames

    Codec ID : V_MPEG4/ISO/AVC

    Duration : 22 min 8 s

    Width : 1 920 pixels

    Height : 1 080 pixels

    Display aspect ratio : 16:9

    Frame rate mode : Constant

    Frame rate : 23.976 (24000/1001) FPS

    Color space : YUV

    Chroma subsampling : 4:2:0

    Bit depth : 8 bits

    Scan type : Progressive

    Title : S06E26 : To Where and Back Again - Part 2

    Color range : Limited

    Color primaries : BT.709

    Transfer characteristics : BT.709

    Matrix coefficients : BT.709

    Format/Info : Audio Coding 3

    Mode extension : CM (complete main)

    Format settings, Endianness : Big

    Codec ID : A_AC3

    Duration : 22 min 8 s

    Bit rate mode : Constant

    Bit rate : 384 kb/s

    Channel(s) : 6 channels

    Channel positions : Front: L C R, Side: L R, LFE

    Sampling rate : 48.0 kHz

    Frame rate : 31.250 FPS (1536 spf)

    Compression mode : Lossy

    Stream size : 60.8 MiB (7%)

    Title : [ENG] AC3 5.1

    Format/Info : Advanced Audio Codec

    Format profile : LC

    Codec ID : A_AAC

    Duration : 22 min 8 s

    Channel(s) : 2 channels

    Channel positions : Front: L R

    Sampling rate : 48.0 kHz

    Frame rate : 46.875 FPS (1024 spf)

    Compression mode : Lossy

    Title : [ENG] AAC 2.0

    Список серий:

    02. The Crystalling — Part 2

    03. The Gift of the Maud Pie

    04. On Your Marks

    05. Gauntlet of Fire

    06. No Second Prances

    08. A Hearth's Warming Tail

    09. The Saddle Row Review

    10. Applejack's Day «Off»

    11. Flutter Brutter

    12. Spice Up Your Life

    13. Stranger Than Fan Fiction

    14. The Cart Before the Ponies

    15. 28 Pranks Later

    16. The Times They Are a Changeling

    17. Dungeons & Discords

    18. Buckball Season

    19. The Fault in Our Cutie Marks

    20. Viva Las Pegasus

    21. Every Little Thing She Does

    22. P.P.O.V. (Pony Point of View)

    23. Where the Apple Lies

    25. To Where and Back Again — Part 1

    26. To Where and Back Again — Part 2

    Млп 6 сезон скачать торрент Млп 6 сезон скачать торрент Млп 6 сезон скачать торрент Млп 6 сезон скачать торрент Все одноименные релизы в Клубе Время раздачи: 24/7, до 3 скачавших (до появления первых 3-5 скачавших)