File-Portal

Скачать Клипы Ленинграда Через Торрент

Рейтинг: 4.0/5.0 (19 проголосовавших)

Категория: Торрент-файлы

Описание

Скачать торрент Ленинград - Экспонат клип (2016) WEB-DLRip 1080p от Kamikkadze, 60 fps

Скачать Ленинград - Экспонат [клип] (2016) WEB-DLRip 1080p от Kamikkadze | 60 fps торрент

Скачать клипы ленинграда через торрент

Скачать клипы ленинграда через торрент

Качество: WEB-DLRip 1080p

1920x800 | 59,940 fps | 21,5 Мбит/сек

AC3 | 6 channels | 48 kHz | 640 Кбит/сек

Скачать клипы ленинграда через торрент Скачать клипы ленинграда через торрент Скачать клипы ленинграда через торрент Скачать клипы ленинграда через торрент Скачать клипы ленинграда через торрент

Автор Рипа: Релиз Группа 60-FPS

Просьба к переливающим на другие сайты, в оформлении указывайте пожалуйста авторство рипа - Kamikkadze

скачать клипы ленинграда через торрент:

  • скачать
  • скачать
  • Другие статьи

    Ленинград - 26 клипов (2013 - 2014) WEBRip

    Ленинград - 26 клипов (2013 - 2014) WEBRip [H.264/720p-LQ]

    Добавлено: 12 июл 2014, 20:30

    • Скачать клипы ленинграда через торрент

    Представлены клипы группировки "Ленинград", созданные в 2013-2014 годах.

    01 Arina - Зачем Зачем! (3:11)

    04 Russalko (2:56)

    06 Баба не моего масштаба (2:28)

    07 Батл Красного (2:33)

    09 Дорожная (5:11)

    10 Интеграл (2:07)

    14 Ноу Ноу Фьюче (2:57)

    15 Парголово (2:35)

    18 Почём звонят колокола (3:24)

    20 СИЗОнная (2:27)

    22 Суходрочка (2:27)

    23 Турбобой (3:05)

    24 Фиаско (без цензуры) (3:24)

    Полное имя : Зачем Зачем!.mp4

    Профиль формата : Base Media / Version 2

    Идентификатор кодека : mp42

    Размер файла : 29,0 Мбайт

    Продолжительность : 3 м. 11 с.

    Режим общего битрейта : Переменный

    Общий поток : 1272 Кбит/сек

    Дата кодирования : UTC 2014-02-06 08:23:54

    Дата пометки : UTC 2014-02-06 08:23:54

    Формат/Информация : Advanced Video Codec

    Параметр CABAC формата : Да

    Параметр ReFrames формата : 1 кадр

    Идентификатор кодека : avc1

    Идентификатор кодека/Информация : Advanced Video Coding

    Продолжительность : 3 м. 11 с.

    Битрейт : 1077 Кбит/сек

    Максимальный битрейт : 3234 Кбит/сек

    Ширина : 1280 пикселей

    Высота : 720 пикселей

    Соотношение сторон : 16:9

    Режим частоты кадров : Постоянный

    Частота кадров : 25,000 кадров/сек

    Цветовое пространство : YUV

    Субдискретизация насыщенности : 4:2:0

    Битовая глубина : 8 бит

    Тип развёртки : Прогрессивная

    Размер потока : 24,6 Мбайт (85%)

    Дата пометки : UTC 2014-02-06 08:23:55

    Формат/Информация : Advanced Audio Codec

    Профиль формата : LC

    Идентификатор кодека : 40

    Продолжительность : 3 м. 11 с.

    Вид битрейта : Переменный

    Битрейт : 192 Кбит/сек

    Максимальный битрейт : 201 Кбит/сек

    Каналы : 2 канала

    Расположение каналов : Front: L R

    Частота : 44,1 КГц

    Метод сжатия : С потерями

    Размер потока : 4,38 Мбайт (15%)

    Заголовок : IsoMedia File Produced by Google, 5-11-2011

    Дата кодирования : UTC 2014-02-06 08:23:54

    Дата пометки : UTC 2014-02-06 08:23:55

    Полное имя : Диоды.mp4

    Профиль формата : Base Media / Version 2

    Идентификатор кодека : mp42

    Размер файла : 51,8 Мбайт

    Продолжительность : 2 м. 58 с.

    Режим общего битрейта : Переменный

    Общий поток : 2427 Кбит/сек

    Дата кодирования : UTC 2013-12-13 16:19:10

    Дата пометки : UTC 2013-12-13 16:19:10

    Формат/Информация : Advanced Video Codec

    Параметр CABAC формата : Да

    Параметр ReFrames формата : 1 кадр

    Параметр GOP формата : M=1, N=60

    Идентификатор кодека : avc1

    Идентификатор кодека/Информация : Advanced Video Coding

    Продолжительность : 2 м. 58 с.

    Битрейт : 2233 Кбит/сек

    Максимальный битрейт : 4726 Кбит/сек

    Ширина : 1280 пикселей

    Высота : 720 пикселей

    Соотношение сторон : 16:9

    Режим частоты кадров : Постоянный

    Частота кадров : 25,000 кадров/сек

    Цветовое пространство : YUV

    Субдискретизация насыщенности : 4:2:0

    Битовая глубина : 8 бит

    Тип развёртки : Прогрессивная

    Размер потока : 47,6 Мбайт (92%)

    Дата пометки : UTC 2013-12-13 16:19:12

    Формат/Информация : Advanced Audio Codec

    Профиль формата : LC

    Идентификатор кодека : 40

    Продолжительность : 2 м. 58 с.

    Вид битрейта : Переменный

    Битрейт : 192 Кбит/сек

    Максимальный битрейт : 202 Кбит/сек

    Каналы : 2 канала

    Расположение каналов : Front: L R

    Частота : 44,1 КГц

    Метод сжатия : С потерями

    Размер потока : 4,10 Мбайт (8%)

    Заголовок : IsoMedia File Produced by Google, 5-11-2011

    Дата кодирования : UTC 2013-12-13 16:19:11

    Дата пометки : UTC 2013-12-13 16:19:12

    Полное имя : 37-й.mp4

    Профиль формата : Base Media / Version 2

    Идентификатор кодека : mp42

    Размер файла : 66,7 Мбайт

    Продолжительность : 2 м. 55 с.

    Режим общего битрейта : Переменный

    Общий поток : 3195 Кбит/сек

    Дата кодирования : UTC 2014-03-07 07:09:15

    Дата пометки : UTC 2014-03-07 07:09:15

    Формат/Информация : Advanced Video Codec

    Параметр CABAC формата : Да

    Параметр ReFrames формата : 1 кадр

    Параметр GOP формата : M=1, N=60

    Идентификатор кодека : avc1

    Идентификатор кодека/Информация : Advanced Video Coding

    Продолжительность : 2 м. 55 с.

    Битрейт : 3001 Кбит/сек

    Максимальный битрейт : 4731 Кбит/сек

    Ширина : 1280 пикселей

    Высота : 720 пикселей

    Соотношение сторон : 16:9

    Режим частоты кадров : Постоянный

    Частота кадров : 29,970 кадров/сек

    Цветовое пространство : YUV

    Субдискретизация насыщенности : 4:2:0

    Битовая глубина : 8 бит

    Тип развёртки : Прогрессивная

    Размер потока : 62,6 Мбайт (94%)

    Дата пометки : UTC 2014-03-07 07:09:17

    Формат/Информация : Advanced Audio Codec

    Профиль формата : LC

    Идентификатор кодека : 40

    Продолжительность : 2 м. 55 с.

    Вид битрейта : Переменный

    Битрейт : 192 Кбит/сек

    Максимальный битрейт : 201 Кбит/сек

    Каналы : 2 канала

    Расположение каналов : Front: L R

    Частота : 44,1 КГц

    Метод сжатия : С потерями

    Размер потока : 4,01 Мбайт (6%)

    Заголовок : IsoMedia File Produced by Google, 5-11-2011

    Дата кодирования : UTC 2014-03-07 07:09:16

    Дата пометки : UTC 2014-03-07 07:09:17

    Скачать клипы ленинграда через торрент

    [ Размер 16.62 КБ / Просмотров 1200 ]

    20 дек 2014, 10:11

    Anonymous

    30 ноя 2014, 12:41

    Anonymous

    21 фев 2015, 23:22

    Anonymous

    30 дек 2014, 23:12

    Anonymous

    20 фев 2015, 16:20

    Гость

    Сейчас этот форум просматривают: нет зарегистрированных пользователей и гости: 0

    Вы не можете отвечать на сообщения

    Вы не можете редактировать свои сообщения

    Вы не можете удалять свои сообщения

    Вы не можете добавлять вложения

    Ресурс не предоставляет электронные версии произведений, а занимается лишь коллекционированием и каталогизацией ссылок, присылаемых и публикуемых на форуме нашими читателями. Если вы являетесь правообладателем какого-либо представленного материала и не желаете чтобы ссылка на него находилась в нашем каталоге, свяжитесь с нами и мы незамедлительно удалим её. Файлы для обмена на трекере предоставлены пользователями сайта, и администрация не несёт ответственности за их содержание. Просьба не заливать файлы, защищенные авторскими правами, а также файлы нелегального содержания!

    Скачать Ленинград - Экспонат клип (2016) WEB-DLRip 1080p от Kamikkadze, 60 fps на Рутрекер торрент

    Скачать Ленинград - Экспонат [клип] (2016) WEB-DLRip 1080p от Kamikkadze | 60 fps через торрент

    Год выхода: 2016

    Качество: WEB-DLRip 1080p

    1920x800 | 59,940 fps | 21,5 Мбит/сек

    AC3 | 6 channels | 48 kHz | 640 Кбит/сек

    Скачать клипы ленинграда через торрент

    Скачать клипы ленинграда через торрент Скачать клипы ленинграда через торрент Скачать клипы ленинграда через торрент Скачать клипы ленинграда через торрент

    Просьба к переливающим на другие сайты, в оформлении указывайте пожалуйста авторство рипа - Kamikkadze

    Ленинград - 26 клипов (2013 - 2014) WEBRip

    Ленинград - 26 клипов (2013 - 2014) WEBRip [H.264/720p-LQ]

    Скачать клипы ленинграда через торрент

    Поблагодарил(а): 1050 раз(а)"> 100%

    Год выпуска: 2013 - 2014

    Представлены клипы группировки "Ленинград", созданные в 2013-2014 годах.

    01 Arina - Зачем Зачем! (3:11)

    04 Russalko (2:56)

    06 Баба не моего масштаба (2:28)

    07 Батл Красного (2:33)

    09 Дорожная (5:11)

    10 Интеграл (2:07)

    14 Ноу Ноу Фьюче (2:57)

    15 Парголово (2:35)

    18 Почём звонят колокола (3:24)

    20 СИЗОнная (2:27)

    22 Суходрочка (2:27)

    23 Турбобой (3:05)

    24 Фиаско (без цензуры) (3:24)

    Качество видео: WEBRip

    Видеокодек: MPEG-4 AVC/H.264

    Размер кадра: 1280x720

    Аудиокодек: AАC, 2 ch

    Битрейт аудио: 192 kb/s VBR

    Полное имя : Зачем Зачем!.mp4

    Профиль формата : Base Media / Version 2

    Идентификатор кодека : mp42

    Размер файла : 29,0 Мбайт

    Продолжительность : 3 м. 11 с.

    Режим общего битрейта : Переменный

    Общий поток : 1272 Кбит/сек

    Дата кодирования : UTC 2014-02-06 08:23:54

    Дата пометки : UTC 2014-02-06 08:23:54

    Формат/Информация : Advanced Video Codec

    Параметр CABAC формата : Да

    Параметр ReFrames формата : 1 кадр

    Идентификатор кодека : avc1

    Идентификатор кодека/Информация : Advanced Video Coding

    Продолжительность : 3 м. 11 с.

    Битрейт : 1077 Кбит/сек

    Максимальный битрейт : 3234 Кбит/сек

    Ширина : 1280 пикселей

    Высота : 720 пикселей

    Соотношение сторон : 16:9

    Режим частоты кадров : Постоянный

    Частота кадров : 25,000 кадров/сек

    Цветовое пространство : YUV

    Субдискретизация насыщенности : 4:2:0

    Битовая глубина : 8 бит

    Тип развёртки : Прогрессивная

    Размер потока : 24,6 Мбайт (85%)

    Дата пометки : UTC 2014-02-06 08:23:55

    Формат/Информация : Advanced Audio Codec

    Профиль формата : LC

    Идентификатор кодека : 40

    Продолжительность : 3 м. 11 с.

    Вид битрейта : Переменный

    Битрейт : 192 Кбит/сек

    Максимальный битрейт : 201 Кбит/сек

    Каналы : 2 канала

    Расположение каналов : Front: L R

    Частота : 44,1 КГц

    Метод сжатия : С потерями

    Размер потока : 4,38 Мбайт (15%)

    Заголовок : IsoMedia File Produced by Google, 5-11-2011

    Дата кодирования : UTC 2014-02-06 08:23:54

    Дата пометки : UTC 2014-02-06 08:23:55

    Полное имя : Диоды.mp4

    Профиль формата : Base Media / Version 2

    Идентификатор кодека : mp42

    Размер файла : 51,8 Мбайт

    Продолжительность : 2 м. 58 с.

    Режим общего битрейта : Переменный

    Общий поток : 2427 Кбит/сек

    Дата кодирования : UTC 2013-12-13 16:19:10

    Дата пометки : UTC 2013-12-13 16:19:10

    Формат/Информация : Advanced Video Codec

    Параметр CABAC формата : Да

    Параметр ReFrames формата : 1 кадр

    Параметр GOP формата : M=1, N=60

    Идентификатор кодека : avc1

    Идентификатор кодека/Информация : Advanced Video Coding

    Продолжительность : 2 м. 58 с.

    Битрейт : 2233 Кбит/сек

    Максимальный битрейт : 4726 Кбит/сек

    Ширина : 1280 пикселей

    Высота : 720 пикселей

    Соотношение сторон : 16:9

    Режим частоты кадров : Постоянный

    Частота кадров : 25,000 кадров/сек

    Цветовое пространство : YUV

    Субдискретизация насыщенности : 4:2:0

    Битовая глубина : 8 бит

    Тип развёртки : Прогрессивная

    Размер потока : 47,6 Мбайт (92%)

    Дата пометки : UTC 2013-12-13 16:19:12

    Формат/Информация : Advanced Audio Codec

    Профиль формата : LC

    Идентификатор кодека : 40

    Продолжительность : 2 м. 58 с.

    Вид битрейта : Переменный

    Битрейт : 192 Кбит/сек

    Максимальный битрейт : 202 Кбит/сек

    Каналы : 2 канала

    Расположение каналов : Front: L R

    Частота : 44,1 КГц

    Метод сжатия : С потерями

    Размер потока : 4,10 Мбайт (8%)

    Заголовок : IsoMedia File Produced by Google, 5-11-2011

    Дата кодирования : UTC 2013-12-13 16:19:11

    Дата пометки : UTC 2013-12-13 16:19:12

    Полное имя : 37-й.mp4

    Профиль формата : Base Media / Version 2

    Идентификатор кодека : mp42

    Размер файла : 66,7 Мбайт

    Продолжительность : 2 м. 55 с.

    Режим общего битрейта : Переменный

    Общий поток : 3195 Кбит/сек

    Дата кодирования : UTC 2014-03-07 07:09:15

    Дата пометки : UTC 2014-03-07 07:09:15

    Формат/Информация : Advanced Video Codec

    Параметр CABAC формата : Да

    Параметр ReFrames формата : 1 кадр

    Параметр GOP формата : M=1, N=60

    Идентификатор кодека : avc1

    Идентификатор кодека/Информация : Advanced Video Coding

    Продолжительность : 2 м. 55 с.

    Битрейт : 3001 Кбит/сек

    Максимальный битрейт : 4731 Кбит/сек

    Ширина : 1280 пикселей

    Высота : 720 пикселей

    Соотношение сторон : 16:9

    Режим частоты кадров : Постоянный

    Частота кадров : 29,970 кадров/сек

    Цветовое пространство : YUV

    Субдискретизация насыщенности : 4:2:0

    Битовая глубина : 8 бит

    Тип развёртки : Прогрессивная

    Размер потока : 62,6 Мбайт (94%)

    Дата пометки : UTC 2014-03-07 07:09:17

    Формат/Информация : Advanced Audio Codec

    Профиль формата : LC

    Идентификатор кодека : 40

    Продолжительность : 2 м. 55 с.

    Вид битрейта : Переменный

    Битрейт : 192 Кбит/сек

    Максимальный битрейт : 201 Кбит/сек

    Каналы : 2 канала

    Расположение каналов : Front: L R

    Частота : 44,1 КГц

    Метод сжатия : С потерями

    Размер потока : 4,01 Мбайт (6%)

    Заголовок : IsoMedia File Produced by Google, 5-11-2011

    Ленинград - Сборник видеоклипов (1998-2016) WEBRip от 7turza - Всё Самое Лучшее

    скачать клипы ленинграда через торрент

    Скачать клипы ленинграда через торрент

    Название: Сборник видеоклипов

    Год выхода: 1998 - 2016

    Жанр: Рок, Панк-Рок, Ска, Ска-Панк

    002. Ленинград — Ду ю лав ми (Дай любви)

    003. Ленинград — Когда нет денег

    004. Ленинград и Револьвер — Новогодняя песня

    005. Ленинград — Мне бы в небо

    006. Ленинград — WWW

    007. Ленинград — Money

    008. Ленинград — Дороги

    009. Ленинград — Мамба

    010. Ленинград — Бабу буду

    011. Ленинград — Менеджер

    012. Ленинград и Пушкинг — Башка

    013. Ленинград — Оле-Оле

    014. Ленинград — Суть-хуйнуть

    015. Ленинград — Геленджик

    016. Ленинград — Ноу Ноу Фьюче

    017. Ленинград — Кто кого

    018. Ленинград — Любовь и боль

    019. Ленинград — News V.1

    020. Ленинград — Птичий грипп

    021. Ленинград — PC

    022. Ленинград — Губошлёп

    023. Ленинград — П и Х

    024. Ленинград — Бабцы

    025. Ленинград — Паганини

    026. Ленинград — Просто игрушка

    027. Ленинград — МДМ

    028. Ленинград — Доширак

    029. Ленинград — Мотоцикл

    030. Ленинград и Вася Обломов — От души (Еду в Магадан)

    031. Ленинград — Сладкий сон

    032. Ленинград — Пиздабол

    033. Ленинград — Такая крутая

    034. Ленинград — Химкинский лес

    035. Ленинград — Не может быть

    036. Ленинград — Последняя осень

    037. Ленинград и Мадонна — И больше никого

    038. Ленинград — Два раза нет

    039. Ленинград — Антинародная

    040. Ленинград — Кержаков

    041. Ленинград — Заебал

    042. Ленинград — Сила Руси

    043. Ленинград — Песня счастья

    044. Ленинград — Is it a real Rock 'n' Roll