File-Portal

кеша скачать торрент

Рейтинг: 5.0/5.0 (657 проголосовавших)

Категория: Торрент-файлы

Описание

Возвращение блудного попугая (1984-1988) скачать через торрент на TOPTorrent в хорошем качестве бесплатно - мультфильмы в HD 1080 720 с ТопТоррента

Возвращение блудного попугая (1984-1988)

Кеша скачать торрент

Возвращение блудного попугая (1984-1988) CDRip

Название: Возвращение блудного попугая.

Производство: СССР, Союзмультфильм.

Авторы сценария: А.Курляндский, В. Караваев.

Режиссёры-постановщики: В. Караваев, А. Давыдов.

Операторы-постановщики: С. Кощеева, А. Чеховский.

Художник-постановщик: А. Савченко.

Музыкальное оформление: Ю. Моисеева.

Фильм озвучивали: Г. Хазанов, М. Корабельникова, З. Нарышкина, Н. Ченчик, В. Невинный, В. Караваев.

Кеша скачать торрент

Кеша скачать торрент

Кеша скачать торрент

Цикл мультипликационных фильмов из трех выпусков.

Вы, конечно же, помните мультик про попугая Кешу, который убежал от Вовки и решил жить самостоятельно? Это замечательный мультипликационный сериал о необыкновенных и очень весёлых приключениях попугая Кеши и его друзей. Всем известный мультфильм мастерски озвучен Геннадием Хазановым.

Видео: 512x384, 25.00 fps, 3152 kb/s

кеша скачать торрент:

  • скачать
  • скачать
  • Другие статьи

    Попугай Кеша: Новые истории 01-04 из 04 (2007) DVDRip скачать торрент бесплатно в хорошем качестве

    Попугай Кеша: Новые истории [01-04 из 04] (2007) DVDRip

    Кеша скачать торрент

    Кеша скачать торрент

    Оригинальное название: Попугай Кеша: Новые истории

    Режиссер: Александр Давыдов

    2. Мужество Кеши

    3. Похищение попугая Кеши

    4. Попугай Кеша и чудовище

    Продолжительность: 4 x

    Дата релиза: 30.04.2012

    Видео: 1195 Кбит/с, 704x528

    Звук: AC3, 2 ch, 192 Кбит/с

    Кеша скачать торрент Кеша скачать торрент Кеша скачать торрент Кеша скачать торрент

    Popugai.Kesha.Novue.Istorii.(2.seriya.iz.4).Muzhestvo.Keshi.2007.XviD.DVDRip.ExKinoRay.avi (134,95 Mb)

    Popugai.Kesha.Novue.Istorii.(3.seriya.iz.4).Pohiwenie.popugaja.Keshi.2007.XviD.DVDRip.ExKinoRay.avi (134,31 Mb)

    Popugai.Kesha.Novue.Istorii.(4.seriya.iz.4).Popugaj.Kesha.i.chudoviwe.2007.XviD.DVDRip.ExKinoRay.avi (128,15 Mb)

    Кеша скачать торрент

    Скачать мультфильмПопугай Кеша: Новые истории [01-04 из 04] (2007) DVDRip через торрент

    Кеша скачать торрент

    Кеша скачать торрент

    Кеша скачать торрент

    Кеша скачать торрент

    Кеша скачать торрент

    Кеша скачать торрент

    Кеша скачать торрент

    Посетители, находящиеся в группе Гости, не могут оставлять комментарии к данной публикации.

    Сборник: всё про попугая Кешу (1984-2006гг

    Сборник: всё про попугая Кешу (1984-2006гг.) DVDRip [Возвращение блудного попугая, Кеша - рыболов, Мужество попугая Кеши, Похищение Кеши, Кеша и чудовище]

    Добавлено: 02 фев 2014, 21:07

    • Кеша скачать торрент

    Жанр: Комедия, Рисованная анимация, Семейный

    Страна: СССР, Россия , Союзмультфильм

    Персонажи: Геннадий Хазанов, Маргарита Корабельникова, Зинаида Нарышкина, Игорь Христенко, Дмитрий Филимонов, Дмитрий Курта

    1. Возвращение блудного попугая (Выпуск 1)

    2. Возвращение блудного попугая (Выпуск 2)

    3. Возвращение блудного попугая (Выпуск 3)

    4. Возвращение блудного попугая (Утро попугая Кеши)

    5. Кеша - рыболов

    6. Мужество попугая Кеши

    7. Похищение Кеши

    8. Кеша и чудовище

    Битрейт аудио: 192 Kbps / 448 Kbps

    Format/Info : Audio Video Interleave

    File size : 165 MiB

    Duration : 9mn 42s

    Overall bit rate : 2 373 Kbps

    Writing application : VirtualDubMod 1.5.10.3 | www.virtualdub-fr.org || (build 2550/release)

    Writing library : VirtualDub build 32706/release

    Format : MPEG-4 Visual

    Format profile : Advanced Simple@L5

    Format settings, BVOP : 2

    Format settings, QPel : No

    Format settings, GMC : No warppoints

    Format settings, Matrix : Default (MPEG)

    Codec ID/Hint : XviD

    Duration : 9mn 42s

    Bit rate : 1 916 Kbps

    Width : 688 pixels

    Height : 512 pixels

    Display aspect ratio : 4:3

    Frame rate : 25.000 fps

    Color space : YUV

    Chroma subsampling : 4:2:0

    Bit depth : 8 bits

    Scan type : Progressive

    Compression mode : Lossy

    Stream size : 133 MiB (81%)

    Writing library : XviD 65

    Format/Info : Audio Coding 3

    Mode extension : CM (complete main)

    Format settings, Endianness : Big

    Duration : 9mn 42s

    Bit rate mode : Constant

    Bit rate : 448 Kbps

    Channel(s) : 6 channels

    Channel positions : Front: L C R, Side: L R, LFE

    Sampling rate : 48.0 KHz

    Bit depth : 16 bits

    Compression mode : Lossy

    Stream size : 31.1 MiB (19%)

    Alignment : Aligned on interleaves

    Interleave, duration : 40 ms (1.00 video frame)

    Interleave, preload duration : 512 ms

    Но появление толстого рыжего кота в новых фирменных джинсах оказывает больший фурор, чем его выступление

    Format/Info : Audio Video Interleave

    File size : 166 MiB

    Duration : 9mn 46s

    Overall bit rate : 2 380 Kbps

    Writing application : VirtualDubMod 1.5.10.3 | www.virtualdub-fr.org || (build 2550/release)

    Writing library : VirtualDub build 32706/release

    Format : MPEG-4 Visual

    Format profile : Advanced Simple@L5

    Format settings, BVOP : 2

    Format settings, QPel : No

    Format settings, GMC : No warppoints

    Format settings, Matrix : Default (MPEG)

    Codec ID/Hint : XviD

    Duration : 9mn 46s

    Bit rate : 1 922 Kbps

    Width : 688 pixels

    Height : 512 pixels

    Display aspect ratio : 4:3

    Frame rate : 25.000 fps

    Color space : YUV

    Chroma subsampling : 4:2:0

    Bit depth : 8 bits

    Scan type : Progressive

    Compression mode : Lossy

    Stream size : 134 MiB (81%)

    Writing library : XviD 65

    Format/Info : Audio Coding 3

    Mode extension : CM (complete main)

    Format settings, Endianness : Big

    Duration : 9mn 46s

    Bit rate mode : Constant

    Bit rate : 448 Kbps

    Channel(s) : 6 channels

    Channel positions : Front: L C R, Side: L R, LFE

    Sampling rate : 48.0 KHz

    Bit depth : 16 bits

    Compression mode : Lossy

    Stream size : 31.3 MiB (19%)

    Alignment : Aligned on interleaves

    Interleave, duration : 40 ms (1.00 video frame)

    Interleave, preload duration : 512 ms

    Кеша сетует, что, в отличие от других, он вынужден находиться в городе (Вовка заболел). Не желая ждать выздоровления хозяина, попугай отправляется на отдых самостоятельно.

    Format/Info : Audio Video Interleave

    File size : 163 MiB

    Duration : 9mn 33s

    Overall bit rate : 2 378 Kbps

    Writing application : VirtualDubMod 1.5.10.3 | www.virtualdub-fr.org || (build 2550/release)

    Writing library : VirtualDub build 32706/release

    Format : MPEG-4 Visual

    Format profile : Advanced Simple@L5

    Format settings, BVOP : 2

    Format settings, QPel : No

    Format settings, GMC : No warppoints

    Format settings, Matrix : Default (MPEG)

    Codec ID/Hint : XviD

    Duration : 9mn 33s

    Bit rate : 1 920 Kbps

    Width : 688 pixels

    Height : 512 pixels

    Display aspect ratio : 4:3

    Frame rate : 25.000 fps

    Color space : YUV

    Chroma subsampling : 4:2:0

    Bit depth : 8 bits

    Scan type : Progressive

    Compression mode : Lossy

    Stream size : 131 MiB (81%)

    Writing library : XviD 65

    Format/Info : Audio Coding 3

    Mode extension : CM (complete main)

    Format settings, Endianness : Big

    Duration : 9mn 33s

    Bit rate mode : Constant

    Bit rate : 448 Kbps

    Channel(s) : 6 channels

    Channel positions : Front: L C R, Side: L R, LFE

    Sampling rate : 48.0 KHz

    Bit depth : 16 bits

    Compression mode : Lossy

    Stream size : 30.6 MiB (19%)

    Alignment : Aligned on interleaves

    Interleave, duration : 40 ms (1.00 video frame)

    Interleave, preload duration : 512 ms

    Format/Info : Audio Video Interleave

    File size : 154 MiB

    Duration : 9mn 10s

    Overall bit rate : 2 342 Kbps

    Writing application : Lavf52.85.0

    Writing library : VirtualDub build 32706/release

    Format : MPEG-4 Visual

    Format profile : Advanced Simple@L5

    Format settings, BVOP : 2

    Format settings, QPel : No

    Format settings, GMC : No warppoints

    Format settings, Matrix : Default (MPEG)

    Muxing mode : Packed bitstream

    Codec ID/Hint : XviD

    Duration : 9mn 10s

    Bit rate : 1 948 Kbps

    Width : 688 pixels

    Height : 512 pixels

    Display aspect ratio : 4:3

    Frame rate : 25.000 fps

    Color space : YUV

    Chroma subsampling : 4:2:0

    Bit depth : 8 bits

    Scan type : Progressive

    Compression mode : Lossy

    Stream size : 128 MiB (83%)

    Writing library : XviD 1.2.1 (UTC 2008-12-04)

    Format/Info : Audio Coding 3

    Mode extension : CM (complete main)

    Format settings, Endianness : Big

    Duration : 9mn 10s

    Bit rate mode : Constant

    Bit rate : 384 Kbps

    Channel(s) : 2 channels

    Channel positions : Front: L R

    Sampling rate : 48.0 KHz

    Bit depth : 16 bits

    Compression mode : Lossy

    Stream size : 25.2 MiB (16%)

    Alignment : Aligned on interleaves

    Interleave, duration : 40 ms (1.00 video frame)

    Interleave, preload duration : 512 ms

    В этой серии уже знакомый нам нахальный и самовлюбленный, но все равно симпатичный попугай Кеша опять насмотрелся телевизора. Из-за свойственной ему впечатлительности, он тут же пытается воплотить в жизнь увиденное на экране. Увлеченный новой идеей, он хватает удочку, делает заброс в окно и… таки подсекает рыбешку.

    Format/Info : Audio Video Interleave

    File size : 211 MiB

    Duration : 12mn 9s

    Overall bit rate : 2 426 Kbps

    Writing application : VirtualDubMod 1.5.10.3 | www.virtualdub-fr.org || (build 2550/release)

    Writing library : VirtualDub build 32706/release

    Format : MPEG-4 Visual

    Format profile : Advanced Simple@L5

    Format settings, BVOP : 2

    Format settings, QPel : No

    Format settings, GMC : No warppoints

    Format settings, Matrix : Default (MPEG)

    Codec ID/Hint : XviD

    Duration : 12mn 9s

    Bit rate : 2 224 Kbps

    Width : 688 pixels

    Height : 512 pixels

    Display aspect ratio : 4:3

    Frame rate : 25.000 fps

    Color space : YUV

    Chroma subsampling : 4:2:0

    Bit depth : 8 bits

    Scan type : Progressive

    Compression mode : Lossy

    Stream size : 193 MiB (92%)

    Writing library : XviD 65

    Format/Info : Audio Coding 3

    Mode extension : CM (complete main)

    Format settings, Endianness : Big

    Duration : 12mn 9s

    Bit rate mode : Constant

    Bit rate : 192 Kbps

    Channel(s) : 2 channels

    Channel positions : Front: L R

    Sampling rate : 48.0 KHz

    Bit depth : 16 bits

    Compression mode : Lossy

    Delay relative to video : 16ms

    Stream size : 16.7 MiB (8%)

    Alignment : Split accross interleaves

    Interleave, duration : 40 ms (1.00 video frame)

    Interleave, preload duration : 500 ms

    Format/Info : Audio Video Interleave

    File size : 206 MiB

    Duration : 13mn 20s

    Overall bit rate : 2 155 Kbps

    Writing application : VirtualDubMod 1.5.10.3 | www.virtualdub-fr.org || (build 2550/release)

    Writing library : VirtualDub build 32706/release

    Format : MPEG-4 Visual

    Format profile : Advanced Simple@L5

    Format settings, BVOP : 2

    Format settings, QPel : No

    Format settings, GMC : No warppoints

    Format settings, Matrix : Default (MPEG)

    Codec ID/Hint : XviD

    Duration : 13mn 20s

    Bit rate : 1 954 Kbps

    Width : 688 pixels

    Height : 512 pixels

    Display aspect ratio : 4:3

    Frame rate : 25.000 fps

    Color space : YUV

    Chroma subsampling : 4:2:0

    Bit depth : 8 bits

    Scan type : Progressive

    Compression mode : Lossy

    Stream size : 186 MiB (91%)

    Writing library : XviD 65

    Format/Info : Audio Coding 3

    Mode extension : CM (complete main)

    Format settings, Endianness : Big

    Duration : 13mn 20s

    Bit rate mode : Constant

    Bit rate : 192 Kbps

    Channel(s) : 2 channels

    Channel positions : Front: L R

    Sampling rate : 48.0 KHz

    Bit depth : 16 bits

    Compression mode : Lossy

    Delay relative to video : 750ms

    Stream size : 18.3 MiB (9%)

    Alignment : Split accross interleaves

    Interleave, duration : 40 ms (1.00 video frame)

    Interleave, preload duration : 500 ms

    Format/Info : Audio Video Interleave

    File size : 206 MiB

    Duration : 13mn 2s

    Overall bit rate : 2 208 Kbps

    Writing application : VirtualDubMod 1.5.10.3 | www.virtualdub-fr.org || (build 2550/release)

    Writing library : VirtualDub build 32706/release

    Format : MPEG-4 Visual

    Format profile : Advanced Simple@L5

    Format settings, BVOP : 2

    Format settings, QPel : No

    Format settings, GMC : No warppoints

    Format settings, Matrix : Default (MPEG)

    Codec ID/Hint : XviD

    Duration : 13mn 2s

    Bit rate : 2 006 Kbps

    Width : 688 pixels

    Height : 512 pixels

    Display aspect ratio : 4:3

    Frame rate : 25.000 fps

    Color space : YUV

    Chroma subsampling : 4:2:0

    Bit depth : 8 bits

    Scan type : Progressive

    Compression mode : Lossy

    Stream size : 187 MiB (91%)

    Writing library : XviD 65

    Format/Info : Audio Coding 3

    Mode extension : CM (complete main)

    Format settings, Endianness : Big

    Duration : 13mn 2s

    Bit rate mode : Constant

    Bit rate : 192 Kbps

    Channel(s) : 2 channels

    Channel positions : Front: L R

    Sampling rate : 48.0 KHz

    Bit depth : 16 bits

    Compression mode : Lossy

    Delay relative to video : 28ms

    Stream size : 17.9 MiB (9%)

    Alignment : Split accross interleaves

    Interleave, duration : 40 ms (1.00 video frame)

    Interleave, preload duration : 500 ms

    Format/Info : Audio Video Interleave

    File size : 196 MiB

    Duration : 12mn 42s

    Overall bit rate : 2 162 Kbps

    Writing application : VirtualDubMod 1.5.10.3 | www.virtualdub-fr.org || (build 2550/release)

    Writing library : VirtualDub build 32706/release

    Format : MPEG-4 Visual

    Format profile : Advanced Simple@L5

    Format settings, BVOP : 2

    Format settings, QPel : No

    Format settings, GMC : No warppoints

    Format settings, Matrix : Default (MPEG)

    Codec ID/Hint : XviD

    Duration : 12mn 42s

    Bit rate : 1 960 Kbps

    Width : 688 pixels

    Height : 512 pixels

    Display aspect ratio : 4:3

    Frame rate : 25.000 fps

    Color space : YUV

    Chroma subsampling : 4:2:0

    Bit depth : 8 bits

    Scan type : Progressive

    Compression mode : Lossy

    Stream size : 178 MiB (91%)

    Writing library : XviD 65

    Format/Info : Audio Coding 3

    Mode extension : CM (complete main)

    Format settings, Endianness : Big

    Duration : 12mn 41s

    Bit rate mode : Constant

    Bit rate : 192 Kbps

    Channel(s) : 2 channels

    Channel positions : Front: L R

    Sampling rate : 48.0 KHz

    Bit depth : 16 bits

    Compression mode : Lossy

    Delay relative to video : 10ms

    Stream size : 17.4 MiB (9%)

    Alignment : Split accross interleaves

    Interleave, duration : 40 ms (1.00 video frame)

    Interleave, preload duration : 500 ms

    Кеша скачать торрент

    [ Размер 15.85 КБ / Просмотров 21 ]

    в форуме На досуге, Размер: 792.72 КБ, Здоровье: 100%

    23 янв 2017, 19:35

    Anonymous

    20 ноя 2016, 16:14

    Anonymous

    28 авг 2016, 17:54

    Anonymous

    05 ноя 2016, 19:01

    Anonymous

    05 ноя 2016, 17:27

    Anonymous

    Сейчас этот форум просматривают: нет зарегистрированных пользователей и гости: 0

    Вы не можете отвечать на сообщения

    Вы не можете редактировать свои сообщения

    Вы не можете удалять свои сообщения

    Вы не можете добавлять вложения

    Ресурс не предоставляет электронные версии произведений, а занимается лишь коллекционированием и каталогизацией ссылок, присылаемых и публикуемых на форуме нашими читателями. Если вы являетесь правообладателем какого-либо представленного материала и не желаете чтобы ссылка на него находилась в нашем каталоге, свяжитесь с нами и мы незамедлительно удалим её. Файлы для обмена на трекере предоставлены пользователями сайта, и администрация не несёт ответственности за их содержание. Просьба не заливать файлы, защищенные авторскими правами, а также файлы нелегального содержания!

    Новые приключения попугая Кеши (2005) скачать торрент (torrent) бесплатно

    кеша скачать торрент

    Кеша скачать торрент

    Кеша скачать торрент

    Кеша скачать торрент

    Кеша скачать торрент

    Кеша скачать торрент

    * Форматы и их краткое описание.

    AVI - видео кодеки XviD, стандартное разрешение фильма 720x384;

    MKV - видео кодеки AVC, стандартное разрешение фильма 720x384;

    MKV 720р - видео кодеки H.26x или AVC, стандартное разрешение фильма 1280 x 720;

    MKV 1080р - видео кодеки H.26x или AVC, стандартное разрешение фильма 1920x1080;

    DVD video - образ DVD диска, видео кодеки MPEG2, стандартное разрешение фильма 720x576.

    M2TS - образ Blu-Ray диска, стандартное разрешение фильма 1920x1080;

    Новые приключения попугая Кеши () год выпуска 2005 скачать торрент бесплатно, без регистрации и SMS (СМС).

    Скачать игры Попугай Кеша - англичанин - ТОРРЕНТИНО - торрент трекер

    Попугай Кеша - англичанин[2008/Family\For Kids/RUS]

    Попугай Кеша - англичанин

    Год выпуска: 2008

    Жанр: Family\For Kids

    Разработчик: Студия "Парус"

    Системные требования: Windows XP SP2 (pyc), Pentium III 1 ГГц, 512 Мб ОЗУ, 64 Мб DirectX 9-совместимая 3D видеокарта (уровня GeForce 4 и выше, кроме встроенных видеокарт и MX-серии), DirectX 9-совместимая звуковая карта, 800 Мб свободного места на жестком диске, 24x CD-ROM, клавиатура, мышь DiretcX 9.0c.

    Тип издания: пиратка

    Язык интерфейса: только русский

    Таблэтка: Не требуется

    Описание: Любознательному Кеше не сидится дома! Озорной попугай решил отправиться в вояж за границу. Но чтобы общаться с иностранцами, нужно знать их язык, уметь читать и писать. Путешествуя вместе с попугаем Кешей, маленький игрок начнет осваивать основы английского языка, изучать алфавит и запоминать новые слова. C попугаем Кешей уроки английского языка превращаются в веселую игру!

    * Новые приключения попугая Кеши за границей

    * Игра предназначена для отработки и закрепления знаний по английскому языку

    * Удобный интерфейс рассчитан на самых маленьких пользователей

    * Великолепная рисованная графика и анимированные вручную персонажи

    * Игра адресована детям в возрасте от 6 лет