File-Portal

счастье из осколков скачать торрент

Рейтинг: 4.9/5.0 (102 проголосовавших)

Категория: Торрент-файлы

Описание

Скачать торрент Осколки счастья 02х01-04 из 04 (2015) WEB-DLRip-AVC от Files-x

Скачать Осколки счастья [02х01-04 из 04] (2015) WEB-DLRip-AVC от Files-x торрент

Счастье из осколков скачать торрент

Счастье из осколков скачать торрент

Оригинальное название: Осколки счастья

Режиссер: Руслан Ибрагимов

В ролях: Юрий Батурин, Юлия Жигалина, Виталий Такс, Анастасия Чистякова (II), Олег Чугунов, Лиза Леонова, Александр Шинкарев, Наталья Ткаченко

Снова семья Кораблевых в центре внимания. С приходом в семью нового члена Натальи наконец-то наладился мир и спокойствие. Дети были от Наташи в восторге. Раньше они знали её как друга семьи, но теперь своей бесконечной добротой и любовью Наташа растопила сердца детей, которые лишились родной матери. Наташа сделала все, чтобы дети полюбили и приняли её как родную, потому что сама не чаяла души в своей новой семье. Между Димой и Наташей тоже все было прекрасно - любовь, уважение, взаимопонимание царили между супругами. Несчастья начались один за другим. Сперва неизвестные лица разгромили стоматологический кабинет Димы, который он обустраивал таким трудом. Частная практика развалилась и теперь нечем оплачивать кредиты. Это оказалось сущей ерундой по сравнению с тем, что случилось с Наташей. Врачи диагностировали у молодой женщины смертельную болезнь. Горе гнетет её изнутри и Наташа не знает как сообщить семье о несчастье. Ведь она хорошо знает, сколько горя перенесли и Дима, и дети всего год тому назад. Сообщить им о надвигающейся трагедии, значит лишить всех надежды на светлое будущее.

счастье из осколков скачать торрент:

  • скачать
  • скачать
  • Другие статьи

    Скачать торрент Осколки счастья 02х01-04 из 04 (2015) SATRip-AVC от Files-x

    Скачать торрент Осколки счастья [02х01-04 из 04] (2015) SATRip-AVC от Files-x

    Счастье из осколков скачать торрент

    Счастье из осколков скачать торрент

    Оригинальное название: Осколки счастья

    Режиссер: Руслан Ибрагимов

    В ролях: Юрий Батурин, Юлия Жигалина, Виталий Такс, Анастасия Чистякова (II), Олег Чугунов, Лиза Леонова, Александр Шинкарев, Наталья Ткаченко

    Снова семья Кораблевых в центре внимания. С приходом в семью нового члена Натальи наконец-то наладился мир и спокойствие. Дети были от Наташи в восторге. Раньше они знали её как друга семьи, но теперь своей бесконечной добротой и любовью Наташа растопила сердца детей, которые лишились родной матери. Наташа сделала все, чтобы дети полюбили и приняли её как родную, потому что сама не чаяла души в своей новой семье. Между Димой и Наташей тоже все было прекрасно - любовь, уважение, взаимопонимание царили между супругами. Несчастья начались один за другим. Сперва неизвестные лица разгромили стоматологический кабинет Димы, который он обустраивал таким трудом. Частная практика развалилась и теперь нечем оплачивать кредиты. Это оказалось сущей ерундой по сравнению с тем, что случилось с Наташей. Врачи диагностировали у молодой женщины смертельную болезнь. Горе гнетет её изнутри и Наташа не знает как сообщить семье о несчастье. Ведь она хорошо знает, сколько горя перенесли и Дима, и дети всего год тому назад. Сообщить им о надвигающейся трагедии, значит лишить всех надежды на светлое будущее.

    Скачать фильм Осколки счастья 2 (2016) через торрент

    Скачать фильм Осколки счастья 2 (1-4 серии из 4) (Руслан Ибрагимов) / [2016, драма, WEB-DLRip-AVC] - торрент

    Скачать бесплатный торрент фильм. Фильм доступен на нашем торрент-трекере бесплатно, без регистрации и смс.

    Счастье из осколков скачать торрентФормат: WEB-DLRip-AVC, MKV, H.264, AC3

    Режиссер: Руслан Ибрагимов

    Продолжительность: 4 x

    Счастье из осколков скачать торрент

    Аудио: 44 kHz, AC3, 2/0 (L,R) ch,

    Уникальный идентификатор : 214173426120066955633977621685707641321 (0xA1204D2CDA919A0995128FDD7C7691E9)

    Полное имя : C:\Оскольки счастья-2.(2016).WEB-DLRip.(AVC).\01.Оскольки счастья-2.01.2016.WEB-DLRip.AVC.mkv

    Версия формата : Version 2

    Размер файла : 648 Мбайт

    Продолжительность : 50 м.

    Общий поток : 1788 Кбит/сек

    Дата кодирования : UTC 2016-10-02 02:56:46

    Программа кодирования : mkvmerge v6.1.0 ('Old Devil') built on Mar 4 2013 09:10:42

    Библиотека кодирования : libebml v1.3.0 + libmatroska v1.4.0

    Формат/Информация : Advanced Video Codec

    Профиль формата : High@L4.1

    Параметр CABAC формата : Да

    Параметр ReFrames формата : 9 кадров

    Идентификатор кодека : V_MPEG4/ISO/AVC

    Продолжительность : 50 м.

    Битрейт : 1600 Кбит/сек

    Ширина : 1024 пикселя

    Высота : 576 пикселей

    Соотношение сторон : 16:9

    Режим частоты кадров : Постоянный

    Частота кадров : 25,000 кадров/сек

    Цветовое пространство : YUV

    Субдискретизация насыщенности : 4:2:0

    Битовая глубина : 8 бит

    Тип развёртки : Прогрессивная

    Размер потока : 565 Мбайт (87%)

    Библиотека кодирования : x264 core 130 r2273 b3065e6

    Настройки программы : cabac=1 / ref=9 / deblock=1:-2:-1 / analyse=0x3:0x133 / me=umh / subme=9 / psy=1 / psy_rd=1.00:0.15 / mixed_ref=1 / me_range=32 / chroma_me=1 / trellis=2 / 8x8dct=1 / cqm=0 / deadzone=21,11 / fast_pskip=0 / chroma_qp_offset=-3 / threads=6 / lookahead_threads=1 / sliced_threads=0 / nr=0 / decimate=1 / interlaced=fake / bluray_compat=0 / constrained_intra=0 / bframes=9 / b_pyramid=2 / b_adapt=2 / b_bias=0 / direct=1 / weightb=1 / open_gop=0 / weightp=2 / keyint=250 / keyint_min=25 / scenecut=40 / intra_refresh=0 / rc=2pass / mbtree=0 / bitrate=1600 / ratetol=1.0 / qcomp=0.60 / qpmin=0 / qpmax=69 / qpstep=4 / cplxblur=20.0 / qblur=0.5 / ip_ratio=1.40 / pb_ratio=1.30 / aq=2:1.00

    Цветовой диапазон : Limited

    Основные цвета : BT.709

    Характеристики трансфера : BT.709

    Коэффициенты матрицы : BT.709

    Формат/Информация : Audio Coding 3

    Расширение режима : CM (complete main)

    Параметр Endianness формата : Big

    Идентификатор кодека : A_AC3

    Продолжительность : 50 м.

    Вид битрейта : Постоянный

    Битрейт : 192 Кбит/сек

    Каналы : 2 канала

    Расположение каналов : Front: L R

    Частота : 44,1 КГц

    Метод сжатия : С потерями

    Размер потока : 69,5 Мбайт (11%)

    Счастье из осколков скачать торрент

    Счастье из осколков скачать торрент

    Счастье из осколков скачать торрент

    Счастье из осколков скачать торрент

    Информация о торренте:

    Скачан: 2299 раз

    Статус: Проверен Зарегистрирован на трекере: 2016-10-03 16:29

    Осколки счастья 2 (2016) скачать торрент

    Осколки счастья 2 (2016) скачать торрент

    Счастье из осколков скачать торрент

    Год выхода: 2016

    Режиссер: Алексей Праздников

    В ролях: Юрий Батурин, Юлия Жигалина, Кристина Кузьмина, Наталья Ткаченко, Екатерина Решетникова, Анастасия Чистякова, Олег Чугунов, Лиза Леонова, Виталий Такс, Тамара Такс, Евгений Такс

    Продолжительность: 44 мин.

    Счастье из осколков скачать торрент

    Счастье из осколков скачать торрент

    Счастье из осколков скачать торрент

    Счастье из осколков скачать торрент

    Напиши комментарий и заработай!

    Каждый комментарий принесёт доход!

    Скачать торрент фильм Осколки счастья 2 (2016) бесплатно без регистрации и без рейтинга

    Осколки счастья 01-04 из 04 (Алексей Праздников) Мелодрама, 2015 SATRip - Скачать торрент

    Осколки счастья [01-04 из 04] (Алексей Праздников) [Мелодрама, 2015] SATRip - скачать торрент

    Добавлено: 30 мар 2015, 11:32

    Счастье из осколков скачать торрент

    Счастье из осколков скачать торрент

    02 дек 2010, 12:39

    • Счастье из осколков скачать торрент

    Режиссер: Алексей Праздников

    В ролях: Юрий Батурин, Юлия Жигалина, Кристина Кузьмина, Наталья Ткаченко, Екатерина Решетникова, Анастасия Чистякова, Олег Чугунов, Лиза Леонова, Виталий Такс, Тамара Такс, Евгений Такс

    Счастливая семья, четверо очаровательных детей, любовь и гармония… Мир в одночасье рухнул, когда героиня погибла в нелепой автокатастрофе. Ее муж не понимает, как жить дальше, но при этом не может замкнуться в себе и лечь на диван, иначе кто будет заботиться о детях? На помощь приходит лучшая подруга его покойной жены

    Студия: ABC Film, Film Stream