File-Portal

рок дог 2016 скачать торрент

Рейтинг: 4.0/5.0 (801 проголосовавших)

Категория: Торрент-файлы

Описание

Рок Дог

Рок Дог / Rock Dog (Эш Браннон) [2016, мультфильм, комедия, приключения, семейный, музыка, BDRip-AVC] DUB

This torrent was removed by the copyright holder or he demanded its removal.

Рок дог 2016 скачать торрентПеревод: Профессиональный (полное дублирование) iTunes , cубтитры: английские

Формат: BDRip-AVC, MKV, H.264, AC3

Страна: Китай, США

Режиссер: Эш Браннон

2718 kbps, 0.192 bit/pixel

Аудио #1: Русский: 48 kHz, AC3 Dolby Digital, 3/2 (L,C,R,l,r) + LFE ch,

384 kbps [Профессиональный (полное дублирование)]

Аудио #2: Английский: 48 kHz, AC3 Dolby Digital, 3/2 (L,C,R,l,r) + LFE ch,

448 kbps [Оригинал]

Версия формата : Version 2

Размер файла : 2,22 Гбайт

Продолжительность : 1 ч. 29 м.

Общий поток : 3540 Кбит/сек

Название фильма : Rock.Dog.2016 #TorpedoUK#

Дата кодирования : UTC 2017-06-20 11:58:48

Программа кодирования : mkvmerge v7.8.0 ('River Man') 32bit built on Apr 3 2015 12:11:22

Библиотека кодирования : libebml v1.3.1 + libmatroska v1.4.2

Attachments : small_cover.jpg / small_cover_land.jpg / cover.jpg / cover_land.jpg

Формат/Информация : Advanced Video Codec

Профиль формата : High@L4.1

Параметр CABAC формата : Да

Параметр ReFrames формата : 10 кадров

Идентификатор кодека : V_MPEG4/ISO/AVC

Продолжительность : 1 ч. 29 м.

Битрейт : 2718 Кбит/сек

Ширина : 1024 пикселя

Высота : 576 пикселей

Соотношение сторон : 16:9

Режим частоты кадров : Постоянный

Частота кадров : 23,976 (24000/1001) кадра/сек

Цветовое пространство : YUV

Субдискретизация насыщенности : 4:2:0

Битовая глубина : 8 бит

Тип развёртки : Прогрессивная

Размер потока : 1,66 Гбайт (75%)

Библиотека кодирования : x264 core 146 r2538 121396c

Настройки программы : cabac=1 / ref=10 / deblock=1:-3:-3 / analyse=0x3:0x133 / me=umh / subme=11 / psy=1 / psy_rd=1.00:0.07 / mixed_ref=1 / me_range=48 / chroma_me=1 / trellis=2 / 8x8dct=1 / cqm=0 / deadzone=21,11 / fast_pskip=0 / chroma_qp_offset=-3 / threads=6 / lookahead_threads=1 / sliced_threads=0 / nr=0 / decimate=0 / interlaced=0 / bluray_compat=0 / constrained_intra=0 / bframes=10 / b_pyramid=2 / b_adapt=2 / b_bias=0 / direct=3 / weightb=1 / open_gop=0 / weightp=2 / keyint=240 / keyint_min=23 / scenecut=40 / intra_refresh=0 / rc_lookahead=40 / rc=2pass / mbtree=0 / bitrate=2718 / ratetol=1.0 / qcomp=0.60 / qpmin=0 / qpmax=69 / qpstep=4 / cplxblur=20.0 / qblur=0.5 / vbv_maxrate=50000 / vbv_bufsize=62500 / nal_hrd=none / filler=0 / ip_ratio=1.40 / pb_ratio=1.30 / aq=1:1.00

Формат/Информация : Audio Coding 3

Расширение режима : CM (complete main)

Параметр Endianness формата : Big

Идентификатор кодека : A_AC3

Продолжительность : 1 ч. 29 м.

Вид битрейта : Постоянный

Битрейт : 384 Кбит/сек

Каналы : 6 каналов

Расположение каналов : Front: L C R, Side: L R, LFE

Частота : 48,0 КГц

Частота кадров : 31,250 кадров/сек (1536 spf)

Битовая глубина : 16 бит

Метод сжатия : С потерями

Размер потока : 247 Мбайт (11%)

Формат/Информация : Audio Coding 3

Расширение режима : CM (complete main)

Параметр Endianness формата : Big

Идентификатор кодека : A_AC3

Продолжительность : 1 ч. 29 м.

Вид битрейта : Постоянный

Битрейт : 448 Кбит/сек

Каналы : 6 каналов

Расположение каналов : Front: L C R, Side: L R, LFE

Частота : 48,0 КГц

Частота кадров : 31,250 кадров/сек (1536 spf)

Битовая глубина : 16 бит

Метод сжатия : С потерями

Размер потока : 288 Мбайт (13%)

Идентификатор кодека : S_TEXT/UTF8

Идентификатор кодека/Информация : UTF-8 Plain Text

рок дог 2016 скачать торрент:

  • скачать
  • скачать
  • Другие статьи

    Рoк Дoг

    Рoк Дoг / Rock Dog (2016) HDRip | iTunes

    Рок дог 2016 скачать торрент

    Год выпуска: 2016

    Жанр: мультфильм, комедия, приключения, семейный, музыка

    Озвучивание: профессиональное, дублированное [iTunes]

    Режиссер: Эш Браннон

    В ролях: Люк Уилсон, Эдди Иззард, Дж.К. Симмонс, Льюис Блэк, Кенан Томпсон, Мэй Уитман, Хорхе Гарсиа, Мэтт Диллон, Сэм Эллиотт, Уилл Финн

    Сюжет: Встречайте, новый герой отправляется покорять город зверей! Он — пёс Боуди, и он не унывает, несмотря ни на что. Ему на роду написано сторожить родную деревню от волков, а он мечтает стать учеником живой рок-легенды, кота по имени Энгус. Однако у Энгуса совсем другие планы, да и волки подстерегают за каждым углом. Но если не вешать хвост, то всё в твоих лапах!

    Рок дог 2016 скачать торрент

    Качество: HDRip [без реклама] , релиз

    Видео: 1649 Kbit/s, 720x400

    Аудио: AC3, 6 ch, 384 kbps

    Рок дог 2016 скачать торрентРок дог 2016 скачать торрентРок дог 2016 скачать торрент

    Как скачивать если раздача заблокирована, Чтобы узнать переходим по ссылке: http://torrent-games.net/forum/9-62705-1#866995

    Раздача заблокирована на территории России по требованию правообладателя.

    Рок Дог скачать торрент в хорошем качестве бесплатно

    рок дог 2016 скачать торрент

    Рок дог 2016 скачать торрент

    Название: Рок Дог

    Оригинальное название: Rock Dog

    Слоган: «A new breed of rock star»

    Премьера в мире: 8 июля 2016

    Дата выхода в России: 4 мая 2017, «Вольга»3D

    Продолжительность: 80 мин. / 01:20

    В собачьем семействе мастиффов родился долгожданный щенок. Так как представители этого древнего рода всегда верно служили хозяевам, то и для Боуди была уготована такая же судьба. Он, когда вырастет, должен будет стать охранником и защищать деревню и домашний скот от набегов волчьих стай. Его отец, преданный своему делу пес, с любовью и терпением обучал сына всем премудростям сложной собачьей работы. Но малыш совершенно не хотел идти по стопам своих предков. Как-то раз он услышал по радио песню в исполнении всемирно известного рок-певца Энгуса. С тех пор главный герой спит и видит себя на сцене в сиянии огней славы. О своем желании стать рок-звездой он сообщил отцу. Но старый пес был недоволен выбором сына и пытался отговорить его от поездки. Видя, что тот не желает сдаваться, и намерен добиться своей мечты, родитель отпускает малыша в музыкальный зверополис. По прибытии в огромный город Боуди ошеломлен разнообразием и количеством проживающих в нем зверей. Первым делом он спешит к особняку Энгуса, чтобы попросить его дать несколько уроков музыки. Зазвездившийся певец совсем не рад его приходу и старается отделаться от новоявленного ученика. Настойчивость щенка поражает – он возвращается к рок-звезде со своей просьбой. В итоге, кот соглашается научить его пению. В этот решающий момент на мегаполис нападает стая волков. Они давно наблюдают за действиями героя и хотят похитить его для своих целей.

    Рок Дог (2016) фильм скачать через торрент в хорошем качестве hd бесплатно без регистрации

    Рок Дог (2016) скачать торрент

    Рок дог 2016 скачать торрент

    Рок дог 2016 скачать торрент

    Год выпуска: 2016

    Страна: Китай, США

    Жанр: мультфильм, комедия, приключения, семейный, музыка

    Премьера РФ: 4 мая 2017

    Режиссер: Эш Браннон

    Актеры: Люк Уилсон Эдди Иззард Дж.К. Симмонс Льюис Блэк Кенан Томпсон Мэй Уитман Хорхе Гарсиа Мэтт Диллон Сэм Эллиотт Уилл Финн

    Рок дог 2016 скачать торрент

    Рок дог 2016 скачать торрент

    Видео: 720x384 (1.88:1), 25 fps, XviD build 50

    1842 kbps avg, 0.27 bit/pixel

    Аудио: 48 kHz, AC3 Dolby Digital, 2/0 (L,R) ch,

    Рок дог 2016 скачать торрент

    Рок Дог / Rock Dog (2016) BDRip 720p | iTunes

    Рок дог 2016 скачать торрент

    Производство: Dream Factory Group, Eracme Entertainment, Mandoo Pictures, Summit Premiere

    Год выпуска: 2016

    Авторы сценария: Эш Браннон, Курт Воелькер, Денис Брэдли

    Видео кодек: AVC

    Аудио кодек: АС3 | DTS

    Видео: 1280x720 (16:9), 23.976 fps, MPEG-4 AVC

    Аудио №1: 48 kHz, AC3 Dolby Digital, 3/2 (L,C,R,l,r) + LFE ch,

    Аудио №2: 48 kHz, Digital Theater Systems, 3/2 (L,C,R,l,r) + LFE ch,

    Формат субтитров: UTF-8 Plain Text

    Дата премьеры (РФ): 4 мая 2017, «Вольга»

    где-то на 5+ минуте видео неожиданно перескакивает на момент с самолетом При сборке BDRemux'а выбрали не правильный плейлист (перепутаны сцены видео). Как следствие кривой рип с него.

    Встречайте, новый герой отправляется покорять город зверей! Дадада, конвеер во всей своей красе. Город зверей, поющих зверей, гг не хочет быть ?ф?е?р?м?е?р?о?м?,? ?т?.?е? ?г?р?а?б?и?т?е?л?е?м? ?в? ?б?а?н?д?е? ?о?т?ц?а?-?г?о?р?и?л?л?ы? прастухом, т, а хочет быть ?п?о?л?и?ц?е?й?с?к?и?м?,? ?т?.?е? ?п?е?в?ц?о?м? гитаристом. Зачем придумывать что-то новое, если можно собрать кучу штампов?