File-Portal

скачать игра престолов 2 сезон 720 торрент

Рейтинг: 5.0/5.0 (367 проголосовавших)

Категория: Торрент-файлы

Описание

Скачать сериал Игра Престолов, 2 сезон 1-10 серии из 10

Скачать сериал Игра Престолов, 2 сезон 1-10 серии из 10 / Game Of Thrones [LostFilm |Uateam] (Алан Тейлор, Дэвид Наттер, Алекс Грейвз) [2012, фэнтези, драма, мелодрама, приключения, BDRip 720p, P+UKR-P] - торрент

Скачать бесплатный торрент сериал. Сериал доступен на нашем торрент-трекере бесплатно, без регистрации и смс.

Скачать игра престолов 2 сезон 720 торрентПеревод #1: Профессиональный (многоголосый закадровый) [LostFilm]

Перевод #2: Профессиональный (многоголосый закадровый) Украинский [Uateam]

Субтитры: русские, английские

Формат: BDRip, MKV, H.264, AC3

Страна: США, Великобритания

Режиссер: Алан Тейлор, Дэвид Наттер, Алекс Грейвз

Продолжительность: 10 x

4400 Kbps avg, 0.199 bit/pixel

Аудио #1 Rus: 48 kHz, AC3, 2 ch

384 Kbps [LostFilm]

Аудио #2 Ukr: 48 kHz, AC3, 2 ch

384 Kbps [Uateam]

Аудио #3 Eng: 48 kHz, AC3, 6 ch

Уникальный идентификатор : 191776771102152155881100954546251264839 (0x9046DCD40837FF23866491CB9DC87347)

Полное имя : F:\TREKER\ТЕМР\game_of_thrones_s02_[my-tfile.org]\game_of_thrones_s02_e01_[my-tfile.org].mkv

Версия формата : Version 2

Размер файла : 2,05 Гбайт

Продолжительность : 52 м. 39 с.

Общий поток : 5560 Кбит/сек

Название фильма : game_of_thrones_s02_e01_[my-tfile.org]

Дата кодирования : UTC 2016-12-01 10:55:52

Программа кодирования : mkvmerge v4.0.0 ('The Stars were mine') сборка от Jun 6 2010 16:18:42

Библиотека кодирования : libebml v1.0.0 + libmatroska v1.0.0

Формат/Информация : Advanced Video Codec

Профиль формата : High@L4.1

Параметр CABAC формата : Да

Параметр ReFrames формата : 6 кадров

Идентификатор кодека : V_MPEG4/ISO/AVC

Продолжительность : 52 м. 39 с.

Битрейт : 4400 Кбит/сек

Ширина : 1280 пикселей

Высота : 720 пикселей

Соотношение сторон : 16:9

Режим частоты кадров : Постоянный

Частота кадров : 23,976 (24000/1001) кадра/сек

Цветовое пространство : YUV

Субдискретизация насыщенности : 4:2:0

Битовая глубина : 8 бит

Тип развёртки : Прогрессивная

Размер потока : 1,58 Гбайт (77%)

Библиотека кодирования : x264 core 146 r2538 121396c

Настройки программы : cabac=1 / ref=6 / deblock=1:-1:-1 / analyse=0x3:0x133 / me=umh / subme=10 / psy=1 / psy_rd=1.00:0.15 / mixed_ref=1 / me_range=24 / chroma_me=1 / trellis=2 / 8x8dct=1 / cqm=0 / deadzone=21,11 / fast_pskip=0 / chroma_qp_offset=-3 / threads=12 / lookahead_threads=1 / sliced_threads=0 / nr=0 / decimate=1 / interlaced=0 / bluray_compat=0 / constrained_intra=0 / bframes=3 / b_pyramid=2 / b_adapt=2 / b_bias=0 / direct=3 / weightb=1 / open_gop=0 / weightp=2 / keyint=250 / keyint_min=23 / scenecut=40 / intra_refresh=0 / rc_lookahead=50 / rc=2pass / mbtree=1 / bitrate=4400 / ratetol=1.0 / qcomp=0.69 / qpmin=0 / qpmax=69 / qpstep=4 / cplxblur=20.0 / qblur=0.5 / ip_ratio=1.40 / aq=1:1.00

Формат/Информация : Audio Coding 3

Расширение режима : CM (complete main)

Параметр Endianness формата : Big

Идентификатор кодека : A_AC3

Продолжительность : 52 м. 39 с.

Вид битрейта : Постоянный

Битрейт : 384 Кбит/сек

Каналы : 6 каналов

Расположение каналов : Front: L C R, Side: L R, LFE

Частота : 48,0 КГц

Частота кадров : 31,250 кадров/сек (1536 spf)

Битовая глубина : 16 бит

Метод сжатия : С потерями

Размер потока : 145 Мбайт (7%)

Заголовок : Профессиональный (многоголосый закадровый)(LostFilm TV)

Формат/Информация : Audio Coding 3

Расширение режима : CM (complete main)

Параметр Endianness формата : Big

Идентификатор кодека : A_AC3

Продолжительность : 52 м. 39 с.

Вид битрейта : Постоянный

Битрейт : 384 Кбит/сек

Каналы : 6 каналов

Расположение каналов : Front: L C R, Side: L R, LFE

Частота : 48,0 КГц

Частота кадров : 31,250 кадров/сек (1536 spf)

Битовая глубина : 16 бит

Метод сжатия : С потерями

Размер потока : 145 Мбайт (7%)

Заголовок : Профессиональный (многоголосый закадровый)(UATEAM.TV)

Формат/Информация : Audio Coding 3

Расширение режима : CM (complete main)

Параметр Endianness формата : Big

Идентификатор кодека : A_AC3

Продолжительность : 52 м. 39 с.

Вид битрейта : Постоянный

Битрейт : 384 Кбит/сек

Каналы : 6 каналов

Расположение каналов : Front: L C R, Side: L R, LFE

Частота : 48,0 КГц

Частота кадров : 31,250 кадров/сек (1536 spf)

Битовая глубина : 16 бит

Метод сжатия : С потерями

Размер потока : 145 Мбайт (7%)

Идентификатор кодека : S_TEXT/ASS

Идентификатор кодека/Информация : Advanced Sub Station Alpha

Метод сжатия : Без потерь

Идентификатор кодека : S_TEXT/ASS

Идентификатор кодека/Информация : Advanced Sub Station Alpha

Метод сжатия : Без потерь

Идентификатор кодека : S_TEXT/UTF8

Идентификатор кодека/Информация : UTF-8 Plain Text

Идентификатор кодека : S_TEXT/UTF8

Идентификатор кодека/Информация : UTF-8 Plain Text

скачать игра престолов 2 сезон 720 торрент:

  • скачать
  • скачать
  • Другие статьи

    Игра престолов (2 сезон)

    Игра престолов (2 сезон) / Game of Thrones (2012)

    Скачать игра престолов 2 сезон 720 торрент

    Оригинальное название: Game of Thrones

    Год выпуска: 2012

    Жанр: драма, фэнтази

    Режиссер: Тимоти Ван Паттен, Брайан Кирк, Даниэль Минахан, Алан Тейлор

    В ролях: Шон Бин, Питер Динклэйдж, Марк Эдди, Николай Костер-Валдау, Мишель Фэйрли, Лена Хиди, Эмилия Кларк, Иэн Глен, Эйдан Гиллен

    Продолжительность: 01:00:00 / серия

    Перевод: Профессиональный (многоголосый, закадровый) |LostFilm|

    Скачать игра престолов 2 сезон 720 торрент

    Скачать игра престолов 2 сезон 720 торрент

    Скачать игра престолов 2 сезон 720 торрент

    Похожие новости Комментарии (0)

    Посетители, находящиеся в группе Гости, не могут оставлять комментарии к данной публикации.

    Игра престолов 2 сезон (2012) Скачать торрент

    Игра престолов / Game of Thrones 2 сезон (2012) Скачать торрент

    Оригинальное название: Game of Thrones

    Год выпуска: 2012

    Страна: США, Великобритания

    Режиссер: Алан Тейлор, Даниэль Минахан, Дэвид Наттер

    В главных ролях: Лина Хиди, Питер Динклэйдж, Мишель Фэйрли, Эмилия Кларк, Кит Харингтон, Николай Костер-Вальдау, Айэйн Глен, Марк Эдди, Эйден Гиллен

    Роли дублировали: Нина Тобилевич, Пётр Иващенко, Ольга Зубкова, Владимир Герасимов, Александр Новиков

    Сценарий: Дэвид Бениофф, Джордж Р.Р. Мартин, Д.Б. Уайсс

    Продюсер: Кристофер Ньюман, Грег Спенс, Фрэнк Дульгер

    Оператор: Алик Сахаров, Мартин Кензи, Мэттью Дженсен

    Композитор: Рамин Джавади

    Жанр: фэнтези, драма, приключения

    Премьера (мир): 17 апреля 2012

    Премьера (РФ): 8 сентября 2012

    Продолжительность: 10 x 00:57:00

    Рейтинг КиноПоиска: 9.03 (42499)

    Рейтинг IMDB: 9.20 (273 141)

    Роберт Баратеон мёртв, казнён на площади его верный десница Эддард Старк. Сразу пять человек провозглашают себя королями, прямой наследник Роберта - Джоффри, братья Роберта Рендли и Станнис, Бейлон Грейджой с Железных островов, и Роб Старк - король севера преследуемый местью за отца. Начинается война пяти королей, в то время как Дейнерис Бурерожденная отправляется в дальний путь, чтобы собрать армию и вернуть желеный трон, а стражи ночного дозора сталкиваются с ужасным, древним злом.

    Формат: HDTVRip, AVI, XviD, MP3

    Видео: 720x400 (1.80:1), 23.976 fps, XviD MPEG-4

    1259 kbps avg, 0.18 bit/pixel

    Аудио: 48 kHz, MPEG Layer 3, 2 ch,

    Перевод: Профессиональный (многоголосый, закадровый) [LostFilm]

    Видео: 688x384 (1.79:1), 23.976 fps, XviD MPEG-4

    1806 kbps avg, 0.28 bit/pixel

    Аудио: 48 kHz, AC3 Dolby Digital, 2/0 (L,R) ch,

    Перевод: Профессиональный многоголосый закадровый

    Скачать Игра престолов

    Игра престолов / Game of Thrones (7 сезон) (2017) WEB-DL 720p

    Жанр: Драма, фэнтези, приключения, экранизация

    Производство: США, Великобритания, Bighead Littlehead, Created By, Generator Entertainment, Home Box Office (HBO)

    Перевод: Профессиональный (Дублированный) [Amedia]

    Продолжительность: 1 x

    Режиссер: Джереми Подесва, Дэниэл Сакхайм, Джек Бендер, Марк Майлод, Мигель Сапочник

    В ролях: Питер Динклэйдж, Иэн Глен, Николай Костер-Валдау, Лина Хиди, Эмилия Кларк, Кит Харингтон, Лиам Каннингэм, Кэрис ван Хаутен, Натали Дормер, Индира Варма, Софи Тёрнер, Мэйси Уильямс, Конлет Хилл, Элфи Оуэн-Аллен, Гвендолин Кристи, Джонатан Прайс, Майкл МакЭлхаттон, Иван Реон, Джозеф Науфаху, Ханна Уэддингхэм, Розабелла Лауренти Селлерс, Дэниэл Портман, Фэй Марсей, Оуэн Тил

    »Качество: WEB-DL 720p

    »Видео: X264/MPEG4-AVC | 1280x720 (16:9) |

    3300 kbps | 23.976 fps

    »Звук: Русский (AC3, 2 ch, 192 Кбит/с), английский (AC3, 6 ch, 448 Кбит/с)

    »Субтитры: Русские, английские

    Игра Престолов (LostFilm) (сезон 2) (эпизод 1-10)

    Игра Престолов (LostFilm) (сезон 2) (эпизод 1-10) / Game of Thrones (2012) HDTV-Rip

    Скачать игра престолов 2 сезон 720 торрент

    Оригинальное название: Game of Thrones 2 season

    Год выхода: 2012

    Страна: США / Великобритания

    Жанр: Зарубежные сериалы

    Режиссер: Алан Тейлор, Алекс Грейвз, Даниэль Минахан

    В ролях: Исаак Хемпстид-Райт, Чарльз Дэнс, Джон Брэдли, Рон Донаки, Йен МакЭлхинни, Джозеф Моул, Гарри Ллойд, Марк Эдди, Роджер Аллам, Элфи Оуэн-Аллен

    Продолжительность: 564 минуты. Полный 2 сезон

    Перевод: Профессиональный, многоголосый, Lostfilm.

    Скачать игра престолов 2 сезон 720 торрент Скачать игра престолов 2 сезон 720 торрент Скачать игра престолов 2 сезон 720 торрент Скачать игра престолов 2 сезон 720 торрент Скачать игра престолов 2 сезон 720 торрент

    02x01 The North Remembers »» Север помнит

    02x02 The Night Lands »» Ночные земли

    02x03 What Is Dead May Never Die »» Что мертво умереть не может

    02x04 Garden of Bones »» Костяной сад

    02x05 The Ghost Of Harrenhal »» Призрак Харренхола

    02x06 The Old Gods and the New »» Боги старые и новые

    02x07 A Man Without Honor »» Человек без чести

    02x08 The Prince of Winterfell »» Принц Винтерфелла

    02x09 Blackwater »» Черноводная

    02x10 Valar Morghulis »» Валар Моргулис / Человек смертен

    Видео: XviD 720x400 (16:9), 23.976 fps,