File-Portal

скачать слот торрент 2016

Рейтинг: 4.7/5.0 (500 проголосовавших)

Категория: Торрент-файлы

Описание

Скачать музыку Слот - Septima (2016) через торрент

Скачать музыку Слот - Septima / [Deluxe Edition] [2016, Альтернативный Рок, MP3] - торрент

Скачать через торрент музыку вы можете, нажав на синюю кнопку.

Скачать слот торрент 2016Формат: MP3, tracks, 320kbps

02. Мочит, как хочет!

03. Русская душа

05. Зал ожидания

07. Туда, где небо.

09. Круги на воде

10. Стёкла розовых очков

11. Страх и агрессия

12. Верю / Не верю

02. Стёкла революции

03. Мёртвые звёзды (Live)

05. Реинкарнация (Инструментальная версия)

06. Мочит, как хочет! (Инструментальная версия)

07. Русская душа (Инструментальная версия)

08. Ctrl+Z (Инструментальная Версия)

09. Зал ожидания (Инструментальная версия)

10. 4 шага (Инструментальная версия)

11. Туда, где небо. (Инструментальная версия)

12. Я знаю (Инструментальная версия)

13. Круги на воде (Инструментальная версия)

14. Стёкла розовых очков (Инструментальная версия)

15. Страх и агрессия (Инструментальная версия)

16. Верю / Не верю (Инструментальная версия)

17. Платно (Инструментальная версия)

Информация о торренте:

Скачан: 2508 раз

Статус: Проверен Зарегистрирован на трекере: 2016-02-24 22:05

скачать слот торрент 2016:

  • скачать
  • скачать
  • Другие статьи

    Скачать Слот - Septima (2016) FLAC торрент

    Слот - Septima (2016) FLAC

    Скачать слот торрент 2016

    Скачать слот торрент 2016

    Жанр: Alt.Rock, Nu Metal

    Битрейт аудио: lossless

    01. Реинкарнация (3:51)

    02. Мочит, как хочет! (3:49)

    03. Русская душа (5:07)

    05. Зал ожидания (3:53)

    07. Туда, где небо. (4:01)

    09. Круги на воде (4:41)

    10. Стёкла розовых очков (4:04)

    11. Страх и агрессия (3:59)

    12. Верю / Не верю (3:52)

    Скачать слот торрент 2016

    Посетители, находящиеся в группе Гости, не могут оставлять комментарии к данной публикации.

    Скачать бесплатно через торрент Фильмы, Сериалы, Игры, Музыку, Софт и многое другое на KRUTOR.NET open the torrent tracker

    Файлы для обмена предоставлены пользователями сайта. Администрация не несёт ответственности за их содержание. На сервере хранятся только торрент-файлы. Это значит, что мы не храним никаких нелегальных материалов.

    Слот - Septima (2016) - скачать торрент бесплатно

    Слот - Septima (2016)

    Скачать слот торрент 2016 Скачать слот торрент 2016

    Скачать слот торрент 2016

    • ИСПОЛНИТЕЛЬ: Слот
    • АЛЬБОМ / НАЗВАНИЕ: Septima
    • ГОД / ДАТА ВЫХОДА: 2016
    • СТРАНА: Россия
    • ТОЧНЫЙ ЖАНР(Ы): Alternative
    • ПРОДОЛЖИТЕЛЬНОСТЬ: 00:52:52
    • ФОРМАТ: MP3
    • КАЧЕСТВО: 320 kbps

    Описание альбома

    02. Мочит, как хочет! (03:49)

    03. Русская душа (05:07)

    05. Зал ожидания (03:53)

    07. Туда, где небо. (04:01)

    09. Круги на воде (04:41)

    10. Стёкла розовых очков (04:04)

    11. Страх и агрессия (03:59)

    12. Верю / Не верю (03:52)

    • Скачать слот торрент 2016

    Слот - Septima (2016) - скачать торрент бесплатно.

    Скачать альбом Слот - Septima (2016) бесплатно и без регистрации через торрент в MP3.

    Скачать торрент вы можете в начале страницы.

    Музыка по стилям и направлениям

    2010–2017. © Sound Park — Музыкальный торрент трекер. Связь с администратором - [email protected]

    Пожалуйста включите Javascript, иначе данный и другие сайты могут работать не корректно! Узнать как включить Javascript можно на Google Support

    Слот скачать торрент (Slot)( сольный проект Нуки (Nookie)) - Дискография - 2003-2016 (19 CD 8 web), FLAC (image

    Слот (Slot)(+ сольный проект Нуки (Nookie)) - Дискография - 2003-2016 (19 CD + 8 web), FLAC (image+.cue; tracks+.cue; tracks), lossless

    Скачать слот торрент 2016

    Стаж: 7 лет 10 месяцев

    Omich18 · 28-Мар-16 22:43 (1 год 5 месяцев назад, ред. 06-Апр-16 16:57)

    Дискография (19 CD + 8 web) (включая сольные релизы Нуки (Nookie))

    Жанр: Alternative rock II Страна-производитель дисков: Россия II Год издания: 2003-2016 II Страна: Россия Аудиокодек: FLAC (*.flac) II Типы рипов: image+.cue; tracks+.cue; tracks II Битрейт аудио: lossless II Продолжительность: 19:34:08

    Лейбл: Мистерия Паблишинг™

    Номер по каталогу: MZ 155-2

    05. Теперь или никогда

    08. Нисхождение («Агата Кристи» cover)

    13. Гнаремуб (bonus)

    Отчёт EAC об извлечении, выполненном 14. июня 2015, 21:58

    Слот (Slot) / Slot 1

    Дисковод: PIONEER BD-RW BDR-207D Adapter: 1 ID: 0

    Режим чтения : Достоверность

    Использование точного потока : Да

    Отключение кэша аудио : Да

    Использование указателей C2 : Нет

    Коррекция смещения при чтении : 667

    Способность читать области Lead-in и Lead-out : Нет

    Заполнение пропущенных сэмплов тишиной : Да

    Удаление блоков с тишиной в начале и конце : Нет

    При вычислениях CRC использовались нулевые сэмплы : Да

    Интерфейс : Встроенный Win32-интерфейс для Win NT/2000

    Выходной формат : Пользовательский кодировщик

    Выбранный битрейт : 128 kBit/s

    Добавление ID3-тега : Нет

    Утилита сжатия : D:\Установленные\Exact Audio Copy\Flac\flac.exe

    Дополнительные параметры : -V -8 -T "Date=%year%" -T "Genre=%genre%" %source%

    TOC извлечённого CD

    Трек | Старт | Длительность | Начальный сектор | Конечный сектор

    1 | 0:00.00 | 0:44.01 | 0 | 3300

    2 | 0:44.01 | 4:03.39 | 3301 | 21564

    3 | 4:47.40 | 3:10.14 | 21565 | 35828

    4 | 7:57.54 | 3:47.13 | 35829 | 52866

    5 | 11:44.67 | 3:22.73 | 52867 | 68089

    6 | 15:07.65 | 3:43.27 | 68090 | 84841

    7 | 18:51.17 | 3:25.24 | 84842 | 100240

    8 | 22:16.41 | 4:20.12 | 100241 | 119752

    9 | 26:36.53 | 3:52.57 | 119753 | 137209

    10 | 30:29.35 | 3:40.01 | 137210 | 153710

    11 | 34:09.36 | 3:39.21 | 153711 | 170156

    12 | 37:48.57 | 4:08.00 | 170157 | 188756

    13 | 41:56.57 | 4:02.27 | 188757 | 206933

    14 | 45:59.09 | 10:20.22 | 206934 | 253455

    15 | 58:51.31 | 0:11.60 | 264856 | 265740

    Характеристики диапазона извлечения и сообщения об ошибках

    Имя файла E:\МузоНчиК\lossless\Слот (Slot) (+Нуки (Nookie))\1) Альбомы\2003 - Slot 1 [Мистерия Паблишинг™]\Image_CD.wav

    Пиковый уровень 98.1 %

    Скорость извлечения 7.2 X

    Качество диапазона 100.0 %

    CRC теста D4DB66B2

    CRC копии D4DB66B2

    Ошибок не произошло

    ==== Контрольная сумма отчёта 43B07F3F52D51D7BE4484D4D709E14FB6CFA2C8E0CD23C06C798CEFE812B1941 ====

    Лейбл: Мистерия Паблишинг™

    Номер по каталогу: MZ 224-2

    05. Теперь или никогда

    08. Нисхождение («Агата Кристи» cover)

    13. Ночной дозор (Воронка) (bonus track)

    Отчёт EAC об извлечении, выполненном 14. июня 2015, 23:28

    Слот (Slot) / Slot 1 (переиздание 2004 г.)

    Дисковод: PIONEER BD-RW BDR-207D Adapter: 1 ID: 0

    Режим чтения : Достоверность

    Использование точного потока : Да

    Отключение кэша аудио : Да

    Использование указателей C2 : Нет

    Коррекция смещения при чтении : 667

    Способность читать области Lead-in и Lead-out : Нет

    Заполнение пропущенных сэмплов тишиной : Да

    Удаление блоков с тишиной в начале и конце : Нет

    При вычислениях CRC использовались нулевые сэмплы : Да

    Интерфейс : Встроенный Win32-интерфейс для Win NT/2000

    Выходной формат : Пользовательский кодировщик

    Выбранный битрейт : 128 kBit/s

    Добавление ID3-тега : Нет

    Утилита сжатия : D:\Установленные\Exact Audio Copy\Flac\flac.exe

    Дополнительные параметры : -V -8 -T "Date=%year%" -T "Genre=%genre%" %source%

    TOC извлечённого CD

    Трек | Старт | Длительность | Начальный сектор | Конечный сектор

    1 | 0:00.00 | 0:40.11 | 0 | 3010

    2 | 0:40.11 | 4:04.16 | 3011 | 21326

    3 | 4:44.27 | 3:10.11 | 21327 | 35587

    4 | 7:54.38 | 3:47.01 | 35588 | 52613

    5 | 11:41.39 | 3:23.39 | 52614 | 67877

    6 | 15:05.03 | 3:44.14 | 67878 | 84691

    7 | 18:49.17 | 3:26.38 | 84692 | 100179

    8 | 22:15.55 | 4:19.05 | 100180 | 119609

    9 | 26:34.60 | 3:53.28 | 119610 | 137112

    10 | 30:28.13 | 3:40.24 | 137113 | 153636

    11 | 34:08.37 | 3:39.21 | 153637 | 170082

    12 | 37:47.58 | 4:07.62 | 170083 | 188669

    13 | 41:55.45 | 3:35.18 | 188670 | 204812

    14 | 45:30.63 | 12:55.17 | 204813 | 262954

    15 | 60:58.05 | 0:11.63 | 274355 | 275242

    Характеристики диапазона извлечения и сообщения об ошибках

    Имя файла E:\МузоНчиК\lossless\Слот (Slot) (+Нуки (Nookie))\1) Альбомы\2003 - Slot 1 (переиздание 2004 г.) [Мистерия Паблишинг™]\Image_CD.wav

    Пиковый уровень 98.5 %

    Скорость извлечения 6.8 X

    Качество диапазона 99.9 %

    CRC теста 5660C7B6

    CRC копии 5660C7B6

    Ошибок не произошло

    ==== Контрольная сумма отчёта E0AB772BE79ABA2B21BBF6CA9D2F7516BD21C516A126B1E21CE5807051CA0C79 ====

    Лейбл: Издательство «ЭМ и НЕМ»™

    Номер по каталогу: AS 010

    06. Пластика (bonus track)

    09. Здесь и теперь

    11. День закрытых дверей

    12. Воронка (Ночной дозор)

    Отчёт EAC об извлечении, выполненном 15. марта 2016, 2:00

    Слот (Slot) / 2 войны

    Дисковод: PIONEER BD-RW BDR-207D Adapter: 1 ID: 0

    Режим чтения : Достоверность

    Использование точного потока : Да

    Отключение кэша аудио : Да

    Использование указателей C2 : Нет

    Коррекция смещения при чтении : 667

    Способность читать области Lead-in и Lead-out : Нет

    Заполнение пропущенных сэмплов тишиной : Да

    Удаление блоков с тишиной в начале и конце : Нет

    При вычислениях CRC использовались нулевые сэмплы : Да

    Интерфейс : Встроенный Win32-интерфейс для Win NT/2000

    Выходной формат : Пользовательский кодировщик

    Выбранный битрейт : 128 kBit/s

    Добавление ID3-тега : Нет

    Утилита сжатия : D:\Установленные\Exact Audio Copy\Flac\flac.exe

    Дополнительные параметры : -V -8 -T "Date=%year%" -T "Genre=%genre%" %source%

    TOC извлечённого CD

    Трек | Старт | Длительность | Начальный сектор | Конечный сектор

    1 | 0:00.00 | 1:05.01 | 0 | 4875

    2 | 1:05.01 | 3:42.53 | 4876 | 21578

    3 | 4:47.54 | 3:52.02 | 21579 | 38980

    4 | 8:39.56 | 3:14.65 | 38981 | 53595

    5 | 11:54.46 | 4:44.58 | 53596 | 74953

    6 | 16:39.29 | 3:34.67 | 74954 | 91070

    7 | 20:14.21 | 3:28.57 | 91071 | 106727

    8 | 23:43.03 | 4:11.73 | 106728 | 125625

    9 | 27:55.01 | 3:04.51 | 125626 | 139476

    10 | 30:59.52 | 3:55.10 | 139477 | 157111

    11 | 34:54.62 | 4:01.46 | 157112 | 175232

    12 | 38:56.33 | 3:53.26 | 175233 | 192733

    13 | 42:49.59 | 5:08.73 | 192734 | 215906

    14 | 47:58.57 | 4:49.32 | 215907 | 237613

    15 | 55:20.14 | 5:22.74 | 249014 | 273237

    Характеристики диапазона извлечения и сообщения об ошибках

    Имя файла E:\МузоНчиК\lossless\Слот (Slot) (+Нуки (Nookie))\1) Альбомы\2006 - 2 войны [Издательство «ЭМ и НЕМ»™]\Image_CD.wav

    Пиковый уровень 100.0 %

    Скорость извлечения 7.0 X

    Качество диапазона 100.0 %

    CRC теста F5AA09B2

    CRC копии F5AA09B2

    Ошибок не произошло

    ==== Контрольная сумма отчёта 9FF7E0BCAF5EE217E96C4CDC88F016AF8DF55F908795823099246570667C9620 ====

    Лейбл: Издательство «ЭМ и НЕМ»™

    Номер по каталогу: AS 010

    09. Здесь и теперь

    11. День закрытых дверей

    14. Бумеранг (live)

    Отчёт EAC об извлечении, выполненном 27. сентября 2009, 17:39

    Дисковод: ASUS DRW-2014L1T Adapter: 3 ID: 0

    Режим чтения : Достоверность

    Использование точного потока : Да

    Отключение кэша аудио : Да

    Использование указателей C2 : Нет

    Коррекция смещения при чтении : 6

    Способность читать области Lead-in и Lead-out : Нет

    Заполнение пропущенных сэмплов тишиной : Да

    Удаление блоков с тишиной в начале и конце : Нет

    При вычислениях CRC использовались нулевые сэмплы : Да

    Интерфейс : Встроенный Win32-интерфейс для Win NT/2000

    Выходной формат : Внутренние WAV-операции

    Формат сэмплов : 44.100 Гц; 16 бит; стерео

    TOC извлечённого CD

    Трек | Старт | Длительность | Начальный сектор | Конечный сектор

    1 | 0:00.00 | 1:05.01 | 0 | 4875

    2 | 1:05.01 | 3:42.53 | 4876 | 21578

    3 | 4:47.54 | 3:52.02 | 21579 | 38980

    4 | 8:39.56 | 3:14.65 | 38981 | 53595

    5 | 11:54.46 | 4:44.58 | 53596 | 74953

    6 | 16:39.29 | 3:34.67 | 74954 | 91070

    7 | 20:14.21 | 3:28.57 | 91071 | 106727

    8 | 23:43.03 | 4:11.73 | 106728 | 125625

    9 | 27:55.01 | 3:04.51 | 125626 | 139476

    10 | 30:59.52 | 3:55.10 | 139477 | 157111

    11 | 34:54.62 | 4:01.46 | 157112 | 175232

    12 | 38:56.33 | 3:53.26 | 175233 | 192733

    13 | 42:49.59 | 5:05.52 | 192734 | 215660

    14 | 47:55.36 | 3:59.61 | 215661 | 233646

    15 | 51:55.22 | 3:25.72 | 233647 | 249093

    16 | 55:21.19 | 4:37.43 | 249094 | 269911

    17 | 62:30.62 | 5:22.74 | 281312 | 305535

    Характеристики диапазона извлечения и сообщения об ошибках

    Имя файла E:\Music\Слот\Слот - 2 Войны.wav

    Пиковый уровень 100.0 %

    Качество диапазона 100.0 %

    CRC копии 48DAB9E9

    Ошибок не произошло

    Трек 1 нет в базе данных

    Трек 2 нет в базе данных

    Трек 3 нет в базе данных

    Трек 4 нет в базе данных

    Трек 5 нет в базе данных

    Трек 6 нет в базе данных

    Трек 7 нет в базе данных

    Трек 8 нет в базе данных

    Трек 9 нет в базе данных

    Трек 10 нет в базе данных

    Трек 11 нет в базе данных

    Трек 12 нет в базе данных

    Трек 13 нет в базе данных

    Трек 14 нет в базе данных

    Трек 15 нет в базе данных

    Трек 16 нет в базе данных

    Ни одного трека нет в базе AccurateRip

    Лейбл: Издательство «ЭМ и НЕМ»™

    Номер по каталогу: AS 011

    09. Здесь и теперь

    11. День закрытых дверей

    12. Воронка (Ночной дозор)

    14. Amadeus (feat. Кирилл Немоляев) (bonus) + video:

    Полное имя : E:\МузоНчиК\lossless\Слот (Slot) (+Нуки (Nookie))\1) Альбомы\2007 - Две войны [Издательство «ЭМ и НЕМ»™]\Video\Слот (Slot) - 2 войны.avi

    Формат/Информация : Audio Video Interleave

    Размер файла : 30,9 Мбайт

    Продолжительность : 3 м. 42 с.

    Общий поток : 1162 Кбит/сек

    Библиотека кодирования : VirtualDub build 24463/release

    Формат : MPEG-4 Visual

    Параметр BVOP формата : 1

    Параметр QPel формата : Нет

    Параметр GMC формата : Без точки перехода

    Параметр матрицы формата : Default (H.263)

    Режим смешивания : Сжатый битовый поток

    Идентификатор кодека : DX50

    Идентификатор кодека/Подсказка : DivX 5

    Продолжительность : 3 м. 42 с.

    Битрейт : 1024 Кбит/сек

    Ширина : 512 пикселей

    Высота : 294 пикселя

    Соотношение сторон : 16:9

    Частота кадров : 25,000 кадров/сек

    Цветовое пространство : YUV

    Субдискретизация насыщенности : 4:2:0

    Битовая глубина : 8 бит

    Тип развёртки : Прогрессивная

    Метод сжатия : С потерями

    Размер потока : 27,2 Мбайт (88%)

    Библиотека кодирования : DivX 5.2.1 Beta (UTC 2004-09-08)

    Формат : MPEG Audio

    Версия формата : Version 1

    Профиль формата : Layer 3

    Режим : Joint stereo

    Расширение режима : MS Stereo

    Идентификатор кодека : 55

    Идентификатор кодека/Подсказка : MP3

    Продолжительность : 3 м. 42 с.

    Вид битрейта : Постоянный

    Битрейт : 128 Кбит/сек

    Каналы : 2 канала

    Частота : 44,1 КГц

    Метод сжатия : С потерями

    Размер потока : 3,40 Мбайт (11%)

    Выравнивание : Разделение по промежуткам

    Продолжительность промежутка : 40 мс. (1,00 видеокадр)

    Время предзагрузки промежутка : 500 мс.

    Отчёт EAC об извлечении, выполненном 15. марта 2016, 2:55

    Слот (Slot) / Две войны

    Дисковод: PIONEER BD-RW BDR-207D Adapter: 1 ID: 0

    Режим чтения : Достоверность

    Использование точного потока : Да

    Отключение кэша аудио : Да

    Использование указателей C2 : Нет

    Коррекция смещения при чтении : 667

    Способность читать области Lead-in и Lead-out : Нет

    Заполнение пропущенных сэмплов тишиной : Да

    Удаление блоков с тишиной в начале и конце : Нет

    При вычислениях CRC использовались нулевые сэмплы : Да

    Интерфейс : Встроенный Win32-интерфейс для Win NT/2000

    Выходной формат : Пользовательский кодировщик

    Выбранный битрейт : 128 kBit/s

    Добавление ID3-тега : Нет

    Утилита сжатия : D:\Установленные\Exact Audio Copy\Flac\flac.exe

    Дополнительные параметры : -V -8 -T "Date=%year%" -T "Genre=%genre%" %source%

    TOC извлечённого CD

    Трек | Старт | Длительность | Начальный сектор | Конечный сектор

    1 | 0:00.00 | 0:50.39 | 0 | 3788

    2 | 0:50.39 | 3:45.22 | 3789 | 20685

    3 | 4:35.61 | 3:51.58 | 20686 | 38068

    4 | 8:27.44 | 3:14.68 | 38069 | 52686

    5 | 11:42.37 | 4:44.06 | 52687 | 73992

    6 | 16:26.43 | 3:39.56 | 73993 | 90473

    7 | 20:06.24 | 3:30.31 | 90474 | 106254

    8 | 23:36.55 | 4:11.71 | 106255 | 125150

    9 | 27:48.51 | 3:04.50 | 125151 | 139000

    10 | 30:53.26 | 3:55.34 | 139001 | 156659

    11 | 34:48.60 | 4:02.34 | 156660 | 174843

    12 | 38:51.19 | 3:54.12 | 174844 | 192405

    13 | 42:45.31 | 5:36.71 | 192406 | 217676

    14 | 48:22.27 | 3:40.57 | 217677 | 234233

    15 | 54:35.09 | 8:54.63 | 245634 | 285746

    Характеристики диапазона извлечения и сообщения об ошибках

    Имя файла E:\МузоНчиК\lossless\Слот (Slot) (+Нуки (Nookie))\1) Альбомы\2007 - Две войны [Издательство «ЭМ и НЕМ»™]\Image_CD.wav

    Пиковый уровень 100.0 %

    Скорость извлечения 6.9 X

    Качество диапазона 99.9 %

    CRC теста B840F73C

    CRC копии B840F73C

    Ошибок не произошло

    ==== Контрольная сумма отчёта C1722F8AD12042FE731B1B81BF8132389B274DDEE8E26C39A5536DC59DE42EB6 ====

    Лейбл: Издательство «ЭМ и НЕМ»™

    Номер по каталогу: AS 011

    09. Здесь и теперь

    11. День закрытых дверей

    14. Бумеранг (live)

    16. Amadeus (feat. Кирилл Немоляев) (bonus track)

    Отчёт EAC об извлечении, выполненном 9. октября 2009, 19:57

    СЛОТ / 2 Войны (переиздание)

    Дисковод: ASUS DRW-2014L1T Adapter: 3 ID: 0

    Режим чтения : Достоверность

    Использование точного потока : Да

    Отключение кэша аудио : Да

    Использование указателей C2 : Нет

    Коррекция смещения при чтении : 6

    Способность читать области Lead-in и Lead-out : Нет

    Заполнение пропущенных сэмплов тишиной : Да

    Удаление блоков с тишиной в начале и конце : Нет

    При вычислениях CRC использовались нулевые сэмплы : Да

    Интерфейс : Встроенный Win32-интерфейс для Win NT/2000

    Выходной формат : Внутренние WAV-операции

    Формат сэмплов : 44.100 Гц; 16 бит; стерео

    TOC извлечённого CD

    Трек | Старт | Длительность | Начальный сектор | Конечный сектор

    1 | 0:00.00 | 0:50.40 | 0 | 3789

    2 | 0:50.40 | 3:44.23 | 3790 | 20612

    3 | 4:34.63 | 3:51.56 | 20613 | 37993

    4 | 8:26.44 | 3:14.72 | 37994 | 52615

    5 | 11:41.41 | 4:44.09 | 52616 | 73924

    6 | 16:25.50 | 3:36.52 | 73925 | 90176

    7 | 20:02.27 | 3:30.35 | 90177 | 105961

    8 | 23:32.62 | 4:11.74 | 105962 | 124860

    9 | 27:44.61 | 3:04.49 | 124861 | 138709

    10 | 30:49.35 | 3:55.34 | 138710 | 156368

    11 | 34:44.69 | 4:02.32 | 156369 | 174550

    12 | 38:47.26 | 3:54.12 | 174551 | 192112

    13 | 42:41.38 | 6:04.42 | 192113 | 219454

    14 | 48:46.05 | 3:53.24 | 219455 | 236953

    15 | 52:39.29 | 3:20.33 | 236954 | 251986

    16 | 55:59.62 | 3:53.52 | 251987 | 269513

    Характеристики диапазона извлечения и сообщения об ошибках

    Имя файла F:\Lossless\СЛОТ - 2 Войны (переиздание).wav

    Пиковый уровень 100.0 %

    Качество диапазона 100.0 %

    CRC теста 94355603

    CRC копии 94355603

    Ошибок не произошло

    Трек 1 нет в базе данных

    Трек 2 нет в базе данных

    Трек 3 нет в базе данных

    Трек 4 нет в базе данных

    Трек 5 нет в базе данных

    Трек 6 нет в базе данных

    Трек 7 нет в базе данных

    Трек 8 нет в базе данных

    Трек 9 нет в базе данных

    Трек 10 нет в базе данных

    Трек 11 нет в базе данных

    Трек 12 нет в базе данных

    Трек 13 нет в базе данных

    Трек 14 нет в базе данных

    Трек 15 нет в базе данных

    Трек 16 нет в базе данных

    Ни одного трека нет в базе AccurateRip

    Лейбл: Издательство M2BA™

    Номер по каталогу: M2BA-0010

    01. Мёртвые звёзды

    03. Улица роз («Ария» cover)

    04. God & Devil Inc.

    07. Они убили Кенни

    10. От заката до рассвета

    11. Над пропастью во лжи

    12. Страх, боль и слёзы

    13. Тик + bonus: набор фотографий с участием группы Слот

    Полное имя : E:\МузоНчиК\lossless\Слот (Slot) (+Нуки (Nookie))\1) Альбомы\2007 - Тринити [M2BA™]\Video\Слот (Slot) - Мёртвые звёзды.avi

    Формат/Информация : Audio Video Interleave

    Размер файла : 66,8 Мбайт

    Продолжительность : 3 м. 9 с.

    Общий поток : 2951 Кбит/сек

    Программа кодирования : VirtualDubMod 1.5.1.1a (build 1639/release)

    Библиотека кодирования : VirtualDubMod build 1639/release

    Формат : MPEG-4 Visual

    Профиль формата : Advanced Simple@L5

    Параметр BVOP формата : 1

    Параметр QPel формата : Нет

    Параметр GMC формата : Без точки перехода

    Параметр матрицы формата : Default (H.263)

    Идентификатор кодека : XVID

    Идентификатор кодека/Подсказка : XviD

    Продолжительность : 3 м. 9 с.

    Битрейт : 2717 Кбит/сек

    Ширина : 720 пикселей

    Высота : 576 пикселей

    Соотношение сторон : 5:4

    Частота кадров : 25,000 кадров/сек

    Стандарт вещания : PAL

    Цветовое пространство : YUV

    Субдискретизация насыщенности : 4:2:0

    Битовая глубина : 8 бит

    Тип развёртки : Прогрессивная

    Метод сжатия : С потерями

    Размер потока : 61,5 Мбайт (92%)

    Библиотека кодирования : XviD 1.1.2 (UTC 2006-11-01)

    Формат : MPEG Audio

    Версия формата : Version 1

    Профиль формата : Layer 3

    Режим : Joint stereo

    Расширение режима : MS Stereo

    Идентификатор кодека : 55

    Идентификатор кодека/Подсказка : MP3

    Продолжительность : 3 м. 9 с.

    Вид битрейта : Постоянный

    Битрейт : 224 Кбит/сек

    Каналы : 2 канала

    Частота : 44,1 КГц

    Метод сжатия : С потерями

    Размер потока : 5,07 Мбайт (8%)

    Выравнивание : Разделение по промежуткам

    Продолжительность промежутка : 40 мс. (1,00 видеокадр)

    Время предзагрузки промежутка : 500 мс.

    Отчёт EAC об извлечении, выполненном 23. апреля 2014, 2:59

    Слот (Slot) / Тринити

    Дисковод: PIONEER BD-RW BDR-207D Adapter: 1 ID: 0

    Режим чтения : Достоверность

    Использование точного потока : Да

    Отключение кэша аудио : Да

    Использование указателей C2 : Нет

    Коррекция смещения при чтении : 667

    Способность читать области Lead-in и Lead-out : Нет

    Заполнение пропущенных сэмплов тишиной : Да

    Удаление блоков с тишиной в начале и конце : Нет

    При вычислениях CRC использовались нулевые сэмплы : Да

    Интерфейс : Встроенный Win32-интерфейс для Win NT/2000

    Выходной формат : Пользовательский кодировщик

    Выбранный битрейт : 128 kBit/s

    Добавление ID3-тега : Нет

    Утилита сжатия : D:\Установленные\Exact Audio Copy\Flac\flac.exe

    Дополнительные параметры : -V -8 -T "Date=%year%" -T "Genre=%genre%" %source%

    TOC извлечённого CD

    Трек | Старт | Длительность | Начальный сектор | Конечный сектор

    1 | 0:00.00 | 3:00.21 | 0 | 13520

    2 | 3:00.21 | 3:15.46 | 13521 | 28191

    3 | 6:15.67 | 4:20.72 | 28192 | 47763

    4 | 10:36.64 | 4:16.41 | 47764 | 67004

    5 | 14:53.30 | 3:37.56 | 67005 | 83335

    6 | 18:31.11 | 3:23.55 | 83336 | 98615

    7 | 21:54.66 | 3:43.55 | 98616 | 115395

    8 | 25:38.46 | 4:07.51 | 115396 | 133971

    9 | 29:46.22 | 3:22.03 | 133972 | 149124

    10 | 33:08.25 | 3:09.26 | 149125 | 163325

    11 | 36:17.51 | 3:27.45 | 163326 | 178895

    12 | 39:45.21 | 2:33.37 | 178896 | 190407

    13 | 42:18.58 | 4:41.17 | 190408 | 211499

    14 | 49:32.00 | 14:00.65 | 222900 | 285964

    Характеристики диапазона извлечения и сообщения об ошибках

    Имя файла E:\МузоНчиК\lossless\Слот (Slot)\2007 - Тринити\Image_CD.wav

    Пиковый уровень 100.0 %

    Скорость извлечения 7.1 X

    Качество диапазона 99.9 %

    CRC теста E3F60C5C

    CRC копии E3F60C5C

    Ошибок не произошло

    ==== Контрольная сумма отчёта 9F2040B1D19F9F34FCECA5E99B1868DDDD8EA1BAE6F74E0D56935C25FDAE7FFF ====

    Лейбл: Издательство M2BA™

    Номер по каталогу: M2-0024-S

    08. Альфа Ромео + бета Джульетта

    11. Конец света - нет Интернета

    Отчёт EAC об извлечении, выполненном 16. марта 2016, 1:00

    Слот (Slot) / 4ever

    Дисковод: PIONEER BD-RW BDR-207D Adapter: 1 ID: 0

    Режим чтения : Достоверность

    Использование точного потока : Да

    Отключение кэша аудио : Да

    Использование указателей C2 : Нет

    Коррекция смещения при чтении : 667

    Способность читать области Lead-in и Lead-out : Нет

    Заполнение пропущенных сэмплов тишиной : Да

    Удаление блоков с тишиной в начале и конце : Нет

    При вычислениях CRC использовались нулевые сэмплы : Да

    Интерфейс : Встроенный Win32-интерфейс для Win NT/2000

    Выходной формат : Пользовательский кодировщик

    Выбранный битрейт : 128 kBit/s

    Добавление ID3-тега : Нет

    Утилита сжатия : D:\Установленные\Exact Audio Copy\Flac\flac.exe

    Дополнительные параметры : -V -8 -T "Date=%year%" -T "Genre=%genre%" %source%

    TOC извлечённого CD

    Трек | Старт | Длительность | Начальный сектор | Конечный сектор

    1 | 0:00.00 | 3:27.57 | 0 | 15581

    2 | 3:27.57 | 3:54.64 | 15582 | 33195

    3 | 7:22.46 | 3:43.02 | 33196 | 49922

    4 | 11:05.48 | 3:30.42 | 49923 | 65714

    5 | 14:36.15 | 3:50.36 | 65715 | 83000

    6 | 18:26.51 | 3:34.53 | 83001 | 99103

    7 | 22:01.29 | 3:28.14 | 99104 | 114717

    8 | 25:29.43 | 3:52.38 | 114718 | 132155

    9 | 29:22.06 | 3:02.27 | 132156 | 145832

    10 | 32:24.33 | 3:15.60 | 145833 | 160517

    11 | 35:40.18 | 3:23.57 | 160518 | 175799

    12 | 39:04.00 | 4:08.71 | 175800 | 194470

    13 | 43:12.71 | 4:00.40 | 194471 | 212510

    Характеристики диапазона извлечения и сообщения об ошибках

    Имя файла E:\МузоНчиК\lossless\Слот (Slot) (+Нуки (Nookie))\1) Альбомы\2009 - 4ever [M2BA™]\Image_CD.wav

    Пиковый уровень 100.0 %

    Скорость извлечения 6.9 X

    Качество диапазона 100.0 %

    CRC теста B308276F

    CRC копии B308276F

    Ошибок не произошло

    ==== Контрольная сумма отчёта D57F238D1F272C2C63ECD82FF8B2967A6B65B3DD3B360DD253C72FEF72C32B07 ====

    Номер по каталогу: Main CD - M2-0024; Bonus CD - M2-0024-CDR

    Продолжительность: 01:23:10 (00:47:13 + 00:35:57)

    08. Альфа Ромео + бета Джульетта

    11. Конец света - нет Интернета

    13. Мир Bonus CD:

    02. Альфа Ромео + бета Джульетта (Roman Rain remix)

    03. Доска (Live Brakebeat remix by Rone-D)

    05. Ля-ля (radio edit)

    07. Клетка (feat. A Maddel)

    08. Се-ля-ви (НАИВ cover)

    09. Кукла вуду (radio edit)

    Полное имя : E:\МузоНчиК\lossless\Слот (Slot) (+Нуки (Nookie))\1) Альбомы\2009 - 4ever (подарочное издание) (2 CD) [ООО «M2»™]\2. Bonus CD\2. Video\Слот (Slot) - Ангел О.К..mpg

    Размер файла : 161 Мбайт

    Продолжительность : 3 м. 34 с.

    Режим общего битрейта : Переменный

    Общий поток : 6287 Кбит/сек

    Идентификатор : 224 (0xE0)

    Формат : MPEG Video

    Версия формата : Version 2

    Профиль формата : Main@Main

    Параметр BVOP формата : Да

    Параметр матрицы формата : По умолчанию

    Параметр GOP формата : M=3, N=12

    Продолжительность : 3 м. 34 с.

    Вид битрейта : Переменный

    Битрейт : 5938 Кбит/сек

    Максимальный битрейт : 9500 Кбит/сек

    Ширина : 720 пикселей

    Высота : 576 пикселей

    Соотношение сторон : 4:3

    Частота кадров : 25,000 кадров/сек

    Стандарт вещания : PAL

    Цветовое пространство : YUV

    Субдискретизация насыщенности : 4:2:0

    Битовая глубина : 8 бит

    Тип развёртки : Чересстрочная

    Порядок развёртки : Нижнее поле первое

    Метод сжатия : С потерями

    Временной код первого кадра : 00:00:00:00

    Оригинал временного кода : Group of pictures header

    Размер потока : 152 Мбайт (94%)

    Идентификатор : 192 (0xC0)

    Формат : MPEG Audio

    Версия формата : Version 1

    Профиль формата : Layer 2

    Продолжительность : 3 м. 34 с.

    Вид битрейта : Постоянный

    Битрейт : 224 Кбит/сек

    Каналы : 2 канала

    Частота : 48,0 КГц

    Метод сжатия : С потерями

    Размер потока : 5,73 Мбайт (4%)

    Полное имя : E:\МузоНчиК\lossless\Слот (Slot) (+Нуки (Nookie))\1) Альбомы\2009 - 4ever (подарочное издание) (2 CD) [ООО «M2»™]\2. Bonus CD\2. Video\Слот (Slot) - Ангел О.К. (making of).mpg

    Размер файла : 245 Мбайт

    Продолжительность : 5 м. 29 с.

    Режим общего битрейта : Переменный

    Общий поток : 6243 Кбит/сек

    Идентификатор : 224 (0xE0)

    Формат : MPEG Video

    Версия формата : Version 2

    Профиль формата : Main@Main

    Параметр BVOP формата : Да

    Параметр матрицы формата : По умолчанию

    Параметр GOP формата : M=3, N=12

    Продолжительность : 5 м. 29 с.

    Вид битрейта : Переменный

    Битрейт : 5895 Кбит/сек

    Максимальный битрейт : 9500 Кбит/сек

    Ширина : 720 пикселей

    Высота : 576 пикселей

    Соотношение сторон : 4:3

    Частота кадров : 25,000 кадров/сек

    Стандарт вещания : PAL

    Цветовое пространство : YUV

    Субдискретизация насыщенности : 4:2:0

    Битовая глубина : 8 бит

    Тип развёртки : Чересстрочная

    Порядок развёртки : Нижнее поле первое

    Метод сжатия : С потерями

    Временной код первого кадра : 00:00:00:00

    Оригинал временного кода : Group of pictures header

    Размер потока : 232 Мбайт (94%)

    Идентификатор : 192 (0xC0)

    Формат : MPEG Audio

    Версия формата : Version 1

    Профиль формата : Layer 2

    Продолжительность : 5 м. 29 с.

    Вид битрейта : Постоянный

    Битрейт : 224 Кбит/сек

    Каналы : 2 канала

    Частота : 48,0 КГц

    Метод сжатия : С потерями

    Размер потока : 8,80 Мбайт (4%)

    Отчёт EAC об извлечении, выполненном 16. марта 2016, 2:01

    Слот (Slot) / 4ever (подарочное издание) (2 CD) - Main CD

    Дисковод: PIONEER BD-RW BDR-207D Adapter: 1 ID: 0

    Режим чтения : Достоверность

    Использование точного потока : Да

    Отключение кэша аудио : Да

    Использование указателей C2 : Нет

    Коррекция смещения при чтении : 667

    Способность читать области Lead-in и Lead-out : Нет

    Заполнение пропущенных сэмплов тишиной : Да

    Удаление блоков с тишиной в начале и конце : Нет

    При вычислениях CRC использовались нулевые сэмплы : Да

    Интерфейс : Встроенный Win32-интерфейс для Win NT/2000

    Выходной формат : Пользовательский кодировщик

    Выбранный битрейт : 128 kBit/s

    Добавление ID3-тега : Нет

    Утилита сжатия : D:\Установленные\Exact Audio Copy\Flac\flac.exe

    Дополнительные параметры : -V -8 -T "Date=%year%" -T "Genre=%genre%" %source%

    TOC извлечённого CD

    Трек | Старт | Длительность | Начальный сектор | Конечный сектор

    1 | 0:00.00 | 3:27.57 | 0 | 15581

    2 | 3:27.57 | 3:54.64 | 15582 | 33195

    3 | 7:22.46 | 3:43.02 | 33196 | 49922

    4 | 11:05.48 | 3:30.42 | 49923 | 65714

    5 | 14:36.15 | 3:50.36 | 65715 | 83000

    6 | 18:26.51 | 3:34.53 | 83001 | 99103

    7 | 22:01.29 | 3:28.14 | 99104 | 114717

    8 | 25:29.43 | 3:52.38 | 114718 | 132155

    9 | 29:22.06 | 3:02.27 | 132156 | 145832

    10 | 32:24.33 | 3:15.60 | 145833 | 160517

    11 | 35:40.18 | 3:23.57 | 160518 | 175799

    12 | 39:04.00 | 4:08.71 | 175800 | 194470

    13 | 43:12.71 | 4:00.40 | 194471 | 212510

    Характеристики диапазона извлечения и сообщения об ошибках

    Имя файла E:\МузоНчиК\lossless\Слот (Slot) (+Нуки (Nookie))\1) Альбомы\2009 - 4ever (подарочное издание) (2 CD) [ООО «M2»™]\1. Main CD\Image_CD.wav

    Пиковый уровень 100.0 %

    Скорость извлечения 3.0 X

    Качество диапазона 100.0 %

    CRC теста B308276F

    CRC копии B308276F

    Ошибок не произошло

    ==== Контрольная сумма отчёта C174B02DAA0436381B505C5780DB0C2A7972828605AD75DAF4270FDA059F0F61 ====

    Год выпуска: 2011

    Лейбл: Издательство M2БА™ & ООО «Союз Мьюзик»™

    Номер по каталогу: M2БА-0030

    04. Одинокие люди

    09. Рок-н-ролл мёртв («Аквариум» cover)

    10. Чёрное на чёрном

    12. Kill me baby one more time

    14. Тело (feat. Roman Rain)

    15. Улица роз («Ария» cover) (feat. Артур Беркут)

    Год выпуска: 2011

    Лейбл: Издательство M2БА™ & ООО «Союз Мьюзик»™

    Номер по каталогу: SZCD-7376-11-2

    01. Break the code

    06. Kill me baby one more time

    16. Broken mirror (Blue Stone remix)

    Отчёт EAC об извлечении, выполненном 16. марта 2016, 23:13

    Слот (Slot) / F5 & Break the code - (F5)

    Дисковод: PIONEER BD-RW BDR-207D Adapter: 1 ID: 0

    Режим чтения : Достоверность

    Использование точного потока : Да

    Отключение кэша аудио : Да

    Использование указателей C2 : Нет

    Коррекция смещения при чтении : 667

    Способность читать области Lead-in и Lead-out : Нет

    Заполнение пропущенных сэмплов тишиной : Да

    Удаление блоков с тишиной в начале и конце : Нет

    При вычислениях CRC использовались нулевые сэмплы : Да

    Интерфейс : Встроенный Win32-интерфейс для Win NT/2000

    Выходной формат : Пользовательский кодировщик

    Выбранный битрейт : 128 kBit/s

    Добавление ID3-тега : Нет

    Утилита сжатия : D:\Установленные\Exact Audio Copy\Flac\flac.exe

    Дополнительные параметры : -V -8 -T "Date=%year%" -T "Genre=%genre%" %source%

    TOC извлечённого CD

    Трек | Старт | Длительность | Начальный сектор | Конечный сектор

    1 | 0:00.00 | 3:39.69 | 0 | 16493

    2 | 3:39.69 | 3:24.29 | 16494 | 31822

    3 | 7:04.23 | 3:51.62 | 31823 | 49209

    4 | 10:56.10 | 3:23.39 | 49210 | 64473

    5 | 14:19.49 | 2:51.13 | 64474 | 77311

    6 | 17:10.62 | 3:18.26 | 77312 | 92187

    7 | 20:29.13 | 3:26.06 | 92188 | 107643

    8 | 23:55.19 | 4:23.48 | 107644 | 127416

    9 | 28:18.67 | 2:55.01 | 127417 | 140542

    10 | 31:13.68 | 3:51.45 | 140543 | 157912

    11 | 35:05.38 | 3:21.10 | 157913 | 172997

    12 | 38:26.48 | 3:37.74 | 172998 | 189346

    13 | 42:04.47 | 4:51.04 | 189347 | 211175

    14 | 46:55.51 | 4:10.56 | 211176 | 229981

    15 | 51:06.32 | 4:12.22 | 229982 | 248903

    16 | 57:50.54 | 11:31.63 | 260304 | 312191

    Характеристики диапазона извлечения и сообщения об ошибках

    Имя файла E:\МузоНчиК\lossless\Слот (Slot) (+Нуки (Nookie))\1) Альбомы\2011 - F5 & Break the code [M2BA™ & ООО «Союз Мьюзик»™]\1. F5\Image_CD.wav

    Пиковый уровень 100.0 %

    Скорость извлечения 6.9 X

    Качество диапазона 99.9 %

    CRC теста 37E1817B

    CRC копии 37E1817B

    Ошибок не произошло

    ==== Контрольная сумма отчёта 8BFA5D194C0F5731393652116D4D33CED2E94BE91B72F17D8D654F950BFE69EE ====

    Отчёт EAC об извлечении, выполненном 16. марта 2016, 23:38

    Слот (Slot) / F5 & Break the code - (Break the code)

    Дисковод: PIONEER BD-RW BDR-207D Adapter: 1 ID: 0

    Режим чтения : Достоверность

    Использование точного потока : Да

    Отключение кэша аудио : Да

    Использование указателей C2 : Нет

    Коррекция смещения при чтении : 667

    Способность читать области Lead-in и Lead-out : Нет

    Заполнение пропущенных сэмплов тишиной : Да

    Удаление блоков с тишиной в начале и конце : Нет

    При вычислениях CRC использовались нулевые сэмплы : Да

    Интерфейс : Встроенный Win32-интерфейс для Win NT/2000

    Выходной формат : Пользовательский кодировщик

    Выбранный битрейт : 128 kBit/s

    Добавление ID3-тега : Нет

    Утилита сжатия : D:\Установленные\Exact Audio Copy\Flac\flac.exe

    Дополнительные параметры : -V -8 -T "Date=%year%" -T "Genre=%genre%" %source%

    TOC извлечённого CD

    Трек | Старт | Длительность | Начальный сектор | Конечный сектор

    1 | 0:00.00 | 3:53.69 | 0 | 17543

    2 | 3:53.69 | 3:33.44 | 17544 | 33562

    3 | 7:27.38 | 3:10.36 | 33563 | 47848

    4 | 10:37.74 | 3:28.66 | 47849 | 63514

    5 | 14:06.65 | 3:44.54 | 63515 | 80368

    6 | 17:51.44 | 3:40.43 | 80369 | 96911

    7 | 21:32.12 | 3:33.67 | 96912 | 112953

    8 | 25:06.04 | 3:45.54 | 112954 | 129882

    9 | 28:51.58 | 4:00.47 | 129883 | 147929

    10 | 32:52.30 | 3:51.27 | 147930 | 165281

    11 | 36:43.57 | 3:31.07 | 165282 | 181113

    12 | 40:14.64 | 2:59.60 | 181114 | 194598

    13 | 43:14.49 | 4:02.63 | 194599 | 212811

    14 | 47:17.37 | 3:07.71 | 212812 | 226907

    15 | 50:25.33 | 4:14.21 | 226908 | 245978

    16 | 54:39.54 | 4:05.70 | 245979 | 264423

    Характеристики диапазона извлечения и сообщения об ошибках

    Имя файла E:\МузоНчиК\lossless\Слот (Slot) (+Нуки (Nookie))\1) Альбомы\2011 - F5 & Break the code [M2BA™ & ООО «Союз Мьюзик»™]\2. Break the code\Image_CD.wav

    Пиковый уровень 97.6 %

    Скорость извлечения 7.2 X

    Качество диапазона 100.0 %

    CRC теста DD836DA1

    CRC копии DD836DA1

    Ошибок не произошло

    ==== Контрольная сумма отчёта CAE55DE20818B303945FF75C8DE1EBC43CE61F3C1B11983BE982F43233CA8A9A ====

    Номер по каталогу: М2БА-0037

    11. Ракета для поэта

    12. Скачать бесплатно

    14. Ангел или демон (OST)

    Отчёт EAC об извлечении, выполненном 17. марта 2016, 0:07

    Слот (Slot) / Шестой

    Дисковод: PIONEER BD-RW BDR-207D Adapter: 1 ID: 0

    Режим чтения : Достоверность

    Использование точного потока : Да

    Отключение кэша аудио : Да

    Использование указателей C2 : Нет

    Коррекция смещения при чтении : 667

    Способность читать области Lead-in и Lead-out : Нет

    Заполнение пропущенных сэмплов тишиной : Да

    Удаление блоков с тишиной в начале и конце : Нет

    При вычислениях CRC использовались нулевые сэмплы : Да

    Интерфейс : Встроенный Win32-интерфейс для Win NT/2000

    Выходной формат : Пользовательский кодировщик

    Выбранный битрейт : 128 kBit/s

    Добавление ID3-тега : Нет

    Утилита сжатия : D:\Установленные\Exact Audio Copy\Flac\flac.exe

    Дополнительные параметры : -V -8 -T "Date=%year%" -T "Genre=%genre%" %source%

    TOC извлечённого CD

    Трек | Старт | Длительность | Начальный сектор | Конечный сектор

    1 | 0:00.01 | 3:52.33 | 1 | 17433

    2 | 3:52.34 | 4:00.67 | 17434 | 35500

    3 | 7:53.26 | 3:18.61 | 35501 | 50411

    4 | 11:12.12 | 3:42.49 | 50412 | 67110

    5 | 14:54.61 | 4:50.03 | 67111 | 88863

    6 | 19:44.64 | 3:31.15 | 88864 | 104703

    7 | 23:16.04 | 3:29.33 | 104704 | 120411

    8 | 26:45.37 | 4:02.37 | 120412 | 138598

    9 | 30:47.74 | 3:51.13 | 138599 | 155936

    10 | 34:39.12 | 3:58.53 | 155937 | 173839

    11 | 38:37.65 | 4:07.40 | 173840 | 192404

    12 | 42:45.30 | 2:43.44 | 192405 | 204673

    13 | 45:28.74 | 3:42.04 | 204674 | 221327

    14 | 49:11.03 | 3:12.60 | 221328 | 235787

    Характеристики диапазона извлечения и сообщения об ошибках

    Имя файла E:\МузоНчиК\lossless\Слот (Slot) (+Нуки (Nookie))\1) Альбомы\2013 - Шестой [M2BA™]\Image_CD.wav

    Пиковый уровень 98.8 %

    Скорость извлечения 7.0 X

    Качество диапазона 100.0 %

    CRC теста E86E0DEC

    CRC копии E86E0DEC

    Ошибок не произошло

    ==== Контрольная сумма отчёта AD99B3F768E395E113D63DCD81F7634041328AE04B17A60E2245FE9F3CE67F12 ====

    Номер по каталогу: М2БА-0046

    02. Мочит, как хочет!

    03. Русская душа

    05. Зал ожидания

    07. Туда, где небо

    09. Круги на воде

    10. Стёкла розовых очков

    11. Страх и агрессия

    12. Верю / не верю

    Отчёт EAC об извлечении, выполненном 17. марта 2016, 0:36

    Слот (Slot) / Septima

    Дисковод: PIONEER BD-RW BDR-207D Adapter: 1 ID: 0

    Режим чтения : Достоверность

    Использование точного потока : Да

    Отключение кэша аудио : Да

    Использование указателей C2 : Нет

    Коррекция смещения при чтении : 667

    Способность читать области Lead-in и Lead-out : Нет

    Заполнение пропущенных сэмплов тишиной : Да

    Удаление блоков с тишиной в начале и конце : Нет

    При вычислениях CRC использовались нулевые сэмплы : Да

    Интерфейс : Встроенный Win32-интерфейс для Win NT/2000

    Выходной формат : Пользовательский кодировщик

    Выбранный битрейт : 128 kBit/s

    Добавление ID3-тега : Нет

    Утилита сжатия : D:\Установленные\Exact Audio Copy\Flac\flac.exe

    Дополнительные параметры : -V -8 -T "Date=%year%" -T "Genre=%genre%" %source%

    TOC извлечённого CD

    Трек | Старт | Длительность | Начальный сектор | Конечный сектор

    1 | 0:00.00 | 3:51.18 | 0 | 17342

    2 | 3:51.18 | 3:49.72 | 17343 | 34589

    3 | 7:41.15 | 5:07.71 | 34590 | 57685

    4 | 12:49.11 | 4:09.43 | 57686 | 76403

    5 | 16:58.54 | 3:53.07 | 76404 | 93885

    6 | 20:51.61 | 3:40.06 | 93886 | 110391

    7 | 24:31.67 | 4:01.52 | 110392 | 128518

    8 | 28:33.44 | 3:44.30 | 128519 | 145348

    9 | 32:17.74 | 4:41.07 | 145349 | 166430

    10 | 36:59.06 | 4:04.37 | 166431 | 184767

    11 | 41:03.43 | 3:59.70 | 184768 | 202762

    12 | 45:03.38 | 3:52.56 | 202763 | 220218

    13 | 48:56.19 | 4:06.23 | 220219 | 238691

    Характеристики диапазона извлечения и сообщения об ошибках

    Имя файла E:\МузоНчиК\lossless\Слот (Slot) (+Нуки (Nookie))\1) Альбомы\2016 - Septima [M2BA™]\Image_CD.wav

    Пиковый уровень 100.0 %

    Скорость извлечения 7.2 X

    Качество диапазона 99.9 %

    CRC теста 675202D3

    CRC копии 675202D3

    Ошибок не произошло

    ==== Контрольная сумма отчёта 7F44E06633848A8F67742B0E093ED4FB733123463EC11A2565DF3D080B491958 ====

    Номер по каталогу: отсутствует

    01. Иди за звёздами (feat. Радистка К@т)

    EAC extraction logfile from 3. November 2009, 23:32

    Слот & Р@дистка Кэт / Иди за Звездами

    Used drive : MATSHITADVD-RAM UJ870QJ Adapter: 0 ID: 0

    Read mode : Secure

    Utilize accurate stream : Yes

    Defeat audio cache : Yes

    Make use of C2 pointers : No

    Read offset correction : 102

    Overread into Lead-In and Lead-Out : No

    Fill up missing offset samples with silence : Yes

    Delete leading and trailing silent blocks : No

    Null samples used in CRC calculations : Yes

    Used interface : Native Win32 interface for Win NT & 2000

    Gap handling : Not detected, thus appended to previous track

    Used output format : User Defined Encoder

    Selected bitrate : 320 kBit/s

    Add ID3 tag : No

    Command line compressor : C:\Program Files\FLAC\flac.exe

    TOC of the extracted CD

    Track | Start | Length | Start sector | End sector

    1 | 0:00.00 | 3:38.28 | 0 | 16377

    Filename D:\music\Слот & Р@дистка Кэт - Иди за Звездами [EP]\01 – Иди за Звездами.wav

    Peak level 100.0 %

    Track quality 100.0 %

    Copy CRC 4E5190E6

    No errors occurred

    End of status report

    Номер по каталогу: неизвестен/отсутствует

    01. Стёкла революции

    Номер по каталогу: неизвестен/отсутствует

    01. Сила притяжения

    Номер по каталогу: неизвестен/отсутствует

    01. Мочит, как хочет!

    Номер по каталогу: неизвестен/отсутствует

    01. Страх и агрессия

    Скачать слот торрент 2016

    Стаж: 7 лет 10 месяцев

    Omich18 · 28-Мар-16 22:44 (спустя 1 мин., ред. 03-Апр-16 16:01)

    Номер по каталогу: M2-008

    01. [Enter] (Pavel (Koz) Low)

    02. Two wars (Ibiza remix) (ID feat. DJ Funkmasta Da Star(USA)) (Nookie % Cache revoxed)

    03. Одни (Jonny Beast remix) (DJ Jonny Beast)

    04. Мёртвые звёзды (DJ Rusty Gale)

    05. God'n'Devil Inc. (Globass_Chin_Kong_re-mix) (DJ Globass)

    06. Dead stars (DJ Nick Antropov)

    07. Seven (R`n`b club remix ID feat. Nookie) (revoxed)

    08. 7 звонков (piano instrumental) (Pavel (Koz) Low)

    09. Воронка (Alan Waters)

    10. 2 Blobs (remix in a minor) (Cape Canaveral)

    11. 2 капли (piano instrumental) (Pavel (Koz) Low)

    12. Люди во сне (Reconstruction_promo_mix) (DJ Alexander Thund)

    13. 2 войны (remixed) (feet motion crew)

    14. Здесь и теперь (Xenone)

    15. Мёртвые звёзды (Слот) (Original radio edit)

    16. Они убили Кенни (ID feat. Garage Kut crew) (NY DNB socety, USA)

    17. Кома (Shind Da One (UK) & Кэш x-harmony re-mix)

    18. LVS (Insanity13_remix) (DJ Oxide)

    19. [Escape] (DJ Andrusha) (Pilot)

    Отчёт EAC об извлечении, выполненном 18. марта 2016, 4:43

    Слот (Slot) / КиСЛОТа. Первая капля

    Дисковод: PIONEER BD-RW BDR-207D Adapter: 1 ID: 0

    Режим чтения : Достоверность

    Использование точного потока : Да

    Отключение кэша аудио : Да

    Использование указателей C2 : Нет

    Коррекция смещения при чтении : 667

    Способность читать области Lead-in и Lead-out : Нет

    Заполнение пропущенных сэмплов тишиной : Да

    Удаление блоков с тишиной в начале и конце : Нет

    При вычислениях CRC использовались нулевые сэмплы : Да

    Интерфейс : Встроенный Win32-интерфейс для Win NT/2000

    Выходной формат : Пользовательский кодировщик

    Выбранный битрейт : 128 kBit/s

    Добавление ID3-тега : Нет

    Утилита сжатия : D:\Установленные\Exact Audio Copy\Flac\flac.exe

    Дополнительные параметры : -V -8 -T "Date=%year%" -T "Genre=%genre%" %source%

    TOC извлечённого CD

    Трек | Старт | Длительность | Начальный сектор | Конечный сектор

    1 | 0:00.00 | 1:26.14 | 0 | 6463

    2 | 1:26.14 | 4:47.54 | 6464 | 28042

    3 | 6:13.68 | 7:50.66 | 28043 | 63358

    4 | 14:04.59 | 3:49.03 | 63359 | 80536

    5 | 17:53.62 | 6:36.32 | 80537 | 110268

    6 | 24:30.19 | 4:22.54 | 110269 | 129972

    7 | 28:52.73 | 3:15.35 | 129973 | 144632

    8 | 32:08.33 | 1:15.61 | 144633 | 150318

    9 | 33:24.19 | 3:56.49 | 150319 | 168067

    10 | 37:20.68 | 3:18.51 | 168068 | 182968

    11 | 40:39.44 | 1:26.02 | 182969 | 189420

    12 | 42:05.46 | 4:01.20 | 189421 | 207515

    13 | 46:06.66 | 3:33.47 | 207516 | 223537

    14 | 49:40.38 | 4:34.22 | 223538 | 244109

    15 | 54:14.60 | 2:52.53 | 244110 | 257062

    16 | 57:07.38 | 5:08.34 | 257063 | 280196

    17 | 62:15.72 | 3:56.65 | 280197 | 297961

    18 | 66:12.62 | 4:07.10 | 297962 | 316496

    19 | 70:19.72 | 3:05.72 | 316497 | 330443

    Характеристики диапазона извлечения и сообщения об ошибках

    Имя файла E:\МузоНчиК\lossless\Слот (Slot) (+Нуки (Nookie))\3) Сборники\2008 - КиСЛОТа. Первая капля [ООО «M2»™]\Image_CD.wav

    Пиковый уровень 100.0 %

    Скорость извлечения 8.0 X

    Качество диапазона 100.0 %

    CRC теста F904837B

    CRC копии F904837B

    Ошибок не произошло

    ==== Контрольная сумма отчёта C74A4572A7E63E9465BB628C970CD4620B338E361678C56F899AE315D2651282 ====

    Лейбл: ФГ «Никитин»™

    Номер по каталогу: ТФН-CD 743/10

    11. Здесь и теперь

    12. Мёртвые звёзды

    13. Они убили кенни

    16. От заката до рассвета

    19. Конец света - нет Интернета

    Отчёт EAC об извлечении, выполненном 20. марта 2016, 3:50

    Слот (Slot) / The Best of

    Дисковод: PIONEER BD-RW BDR-207D Adapter: 1 ID: 0

    Режим чтения : Достоверность

    Использование точного потока : Да

    Отключение кэша аудио : Да

    Использование указателей C2 : Нет

    Коррекция смещения при чтении : 667

    Способность читать области Lead-in и Lead-out : Нет

    Заполнение пропущенных сэмплов тишиной : Да

    Удаление блоков с тишиной в начале и конце : Нет

    При вычислениях CRC использовались нулевые сэмплы : Да

    Интерфейс : Встроенный Win32-интерфейс для Win NT/2000

    Выходной формат : Пользовательский кодировщик

    Выбранный битрейт : 128 kBit/s

    Добавление ID3-тега : Нет

    Утилита сжатия : D:\Установленные\Exact Audio Copy\Flac\flac.exe

    Дополнительные параметры : -V -8 -T "Date=%year%" -T "Genre=%genre%" %source%

    TOC извлечённого CD

    Трек | Старт | Длительность | Начальный сектор | Конечный сектор

    1 | 0:00.00 | 3:24.35 | 0 | 15334

    2 | 3:24.35 | 4:05.16 | 15335 | 33725

    3 | 7:29.51 | 3:11.62 | 33726 | 48112

    4 | 10:41.38 | 3:54.48 | 48113 | 65710

    5 | 14:36.11 | 3:41.20 | 65711 | 82305

    6 | 18:17.31 | 3:45.22 | 82306 | 99202

    7 | 22:02.53 | 3:14.68 | 99203 | 113820

    8 | 25:17.46 | 4:44.06 | 113821 | 135126

    9 | 30:01.52 | 3:39.56 | 135127 | 151607

    10 | 33:41.33 | 4:11.71 | 151608 | 170503

    11 | 37:53.29 | 3:04.50 | 170504 | 184353

    12 | 40:58.04 | 3:01.21 | 184354 | 197949

    13 | 43:59.25 | 3:43.55 | 197950 | 214729

    14 | 47:43.05 | 4:07.51 | 214730 | 233305

    15 | 51:50.56 | 3:15.46 | 233306 | 247976

    16 | 55:06.27 | 3:09.26 | 247977 | 262177

    17 | 58:15.53 | 3:27.57 | 262178 | 277759

    18 | 61:43.35 | 3:34.53 | 277760 | 293862

    19 | 65:18.13 | 3:23.57 | 293863 | 309144

    20 | 68:41.70 | 4:00.40 | 309145 | 327184

    Характеристики диапазона извлечения и сообщения об ошибках

    Имя файла E:\МузоНчиК\lossless\Слот (Slot) (+Нуки (Nookie))\3) Сборники\2010 - The Best of [ФГ «Никитин»™]\Image_CD.wav

    Пиковый уровень 98.8 %

    Скорость извлечения 7.8 X

    Качество диапазона 100.0 %

    CRC теста BA6FD075

    CRC копии BA6FD075

    Ошибок не произошло

    ==== Контрольная сумма отчёта E7F4411312537B8B918C7B5BFA6328267EC5710B2545FBFA6000B9898C83A821 ====

    Номер по каталогу: неизвестен/отсутствует

    01. Если (Johnny Beast desert storm mix)

    02. Одинокие люди (Johnny Beast club mix)

    03. Просточеловек (Johnny Beast save-the-world spirits mix)

    04. 2 войны (Johnny Beast club alarm mix)

    05. Зеркала (Johnny Beast club mirrors mix)

    06. 4еловек-паук (Johnny Beast panic run mix)

    07. Кома (Johnny Beast 2015 mix)

    08. 7 звонков (Johnny Beast 180 km-h mix)

    09. Лего (Johnny Beast digital mix)

    10. Хиромантия (Johnny Beast beast 4 a.m. club mix)

    11. Ракета для поэта (Johnny Beast club mix)

    12. Сочи (Johnny Beast extended mix)

    Лейбл: Студия «СОЮЗ»™

    Номер по каталогу: SZCD-6232-13

    02. Давай помолчим

    11. Научи + video:

    Полное имя : C:\Users\Omich18\Desktop\2013 - Живы!\Video\Нуки (Nookie) - Живы!.mp4

    Профиль формата : Base Media / Version 2

    Идентификатор кодека : mp42

    Размер файла : 124 Мбайт

    Продолжительность : 4 м. 10 с.

    Режим общего битрейта : Переменный

    Общий поток : 4154 Кбит/сек

    Дата кодирования : UTC 2013-04-16 09:00:27

    Дата пометки : UTC 2013-04-16 09:00:27

    Формат/Информация : Advanced Video Codec

    Профиль формата : High@L4.0

    Параметр CABAC формата : Да

    Параметр ReFrames формата : 1 кадр

    Идентификатор кодека : avc1

    Идентификатор кодека/Информация : Advanced Video Coding

    Продолжительность : 4 м. 10 с.

    Битрейт : 3960 Кбит/сек

    Максимальный битрейт : 8066 Кбит/сек

    Ширина : 1920 пикселей

    Высота : 1080 пикселей

    Соотношение сторон : 16:9

    Режим частоты кадров : Постоянный

    Частота кадров : 25,000 кадров/сек

    Цветовое пространство : YUV

    Субдискретизация насыщенности : 4:2:0

    Битовая глубина : 8 бит

    Тип развёртки : Прогрессивная

    Размер потока : 118 Мбайт (95%)

    Дата пометки : UTC 2013-04-16 09:00:33

    Формат/Информация : Advanced Audio Codec

    Профиль формата : LC

    Идентификатор кодека : 40

    Продолжительность : 4 м. 10 с.

    Вид битрейта : Переменный

    Битрейт : 192 Кбит/сек

    Максимальный битрейт : 201 Кбит/сек

    Каналы : 2 канала

    Расположение каналов : Front: L R

    Частота : 44,1 КГц

    Метод сжатия : С потерями

    Размер потока : 5,72 Мбайт (5%)

    Заголовок : IsoMedia File Produced by Google, 5-11-2011

    Дата кодирования : UTC 2013-04-16 09:00:31

    Дата пометки : UTC 2013-04-16 09:00:33

    Полное имя : C:\Users\Omich18\Desktop\2013 - Живы!\Video\Нуки (Nookie) - Бойся.mp4

    Профиль формата : Base Media / Version 2

    Идентификатор кодека : mp42

    Размер файла : 87,2 Мбайт

    Продолжительность : 4 м. 4 с.

    Режим общего битрейта : Переменный

    Общий поток : 2986 Кбит/сек

    Дата кодирования : UTC 2012-12-09 19:38:29

    Дата пометки : UTC 2012-12-09 19:38:29

    Формат/Информация : Advanced Video Codec

    Профиль формата : High@L4.0

    Параметр CABAC формата : Да

    Параметр ReFrames формата : 1 кадр

    Идентификатор кодека : avc1

    Идентификатор кодека/Информация : Advanced Video Coding

    Продолжительность : 4 м. 4 с.

    Битрейт : 2792 Кбит/сек

    Максимальный битрейт : 6512 Кбит/сек

    Ширина : 1920 пикселей

    Высота : 800 пикселей

    Соотношение сторон : 2,40:1

    Режим частоты кадров : Постоянный

    Частота кадров : 25,000 кадров/сек

    Цветовое пространство : YUV

    Субдискретизация насыщенности : 4:2:0

    Битовая глубина : 8 бит

    Тип развёртки : Прогрессивная

    Размер потока : 81,5 Мбайт (93%)

    Дата пометки : UTC 2012-12-09 19:38:29

    Формат/Информация : Advanced Audio Codec

    Профиль формата : LC

    Идентификатор кодека : 40

    Продолжительность : 4 м. 4 с.

    Вид битрейта : Переменный

    Битрейт : 192 Кбит/сек

    Максимальный битрейт : 202 Кбит/сек

    Каналы : 2 канала

    Расположение каналов : Front: L R

    Частота : 44,1 КГц

    Метод сжатия : С потерями

    Размер потока : 5,60 Мбайт (6%)

    Заголовок : IsoMedia File Produced by Google, 5-11-2011

    Дата кодирования : UTC 2012-12-09 19:38:29

    Дата пометки : UTC 2012-12-09 19:38:29

    Отчёт EAC об извлечении, выполненном 19. марта 2014, 23:18

    Нуки (Nookie) / Живы!

    Дисковод: PIONEER BD-RW BDR-207D Adapter: 1 ID: 0

    Режим чтения : Достоверность

    Использование точного потока : Да

    Отключение кэша аудио : Да

    Использование указателей C2 : Нет

    Коррекция смещения при чтении : 667

    Способность читать области Lead-in и Lead-out : Нет

    Заполнение пропущенных сэмплов тишиной : Да

    Удаление блоков с тишиной в начале и конце : Нет

    При вычислениях CRC использовались нулевые сэмплы : Да

    Интерфейс : Встроенный Win32-интерфейс для Win NT/2000

    Выходной формат : Пользовательский кодировщик

    Выбранный битрейт : 128 kBit/s

    Добавление ID3-тега : Нет

    Утилита сжатия : D:\Установленные\Exact Audio Copy\Flac\flac.exe

    Дополнительные параметры : -V -8 -T "Date=%year%" -T "Genre=%genre%" %source%

    TOC извлечённого CD

    Трек | Старт | Длительность | Начальный сектор | Конечный сектор

    1 | 0:00.00 | 3:52.39 | 0 | 17438

    2 | 3:52.39 | 3:34.27 | 17439 | 33515

    3 | 7:26.66 | 4:06.01 | 33516 | 51966

    4 | 11:32.67 | 3:44.00 | 51967 | 68766

    5 | 15:16.67 | 3:27.18 | 68767 | 84309

    6 | 18:44.10 | 4:08.50 | 84310 | 102959

    7 | 22:52.60 | 3:51.37 | 102960 | 120321

    8 | 26:44.22 | 3:37.18 | 120322 | 136614

    9 | 30:21.40 | 3:54.56 | 136615 | 154220

    10 | 34:16.21 | 4:06.00 | 154221 | 172670

    11 | 38:22.21 | 3:24.18 | 172671 | 187988

    12 | 44:18.39 | 24:04.01 | 199389 | 307689

    Характеристики диапазона извлечения и сообщения об ошибках

    Имя файла C:\Users\Omich18\Desktop\2013 - Живы!\Нуки (Nookie) - Живы!.wav

    Пиковый уровень 98.8 %

    Скорость извлечения 6.3 X

    Качество диапазона 100.0 %

    CRC теста 60EF0891

    CRC копии 60EF0891

    Ошибок не произошло

    ==== Контрольная сумма отчёта 68265D1AC8BCD7D3078FBC535456D75E2985FEBD3ED8E005B52586C35CEBADEC ====

    Номер по каталогу: неизвестен/отсутствует

    Продолжительность: 01:31:18 (00:49:26 + 00:41:52)

    02. Давай помолчим

    12. Клоуны (feat. Jambazi & Fike)

    13. Научи (Full Version) Bonus CD:

    01. Живы! (instrumental)

    02. Давай помолчим (instrumental)

    03. Бойся (instrumental)

    04. Не ври (instrumental)

    05. Пепел (instrumental)

    06. Клоуны (instrumental)

    07. Хочу верить (instrumental)

    08. Вот бы (instrumental)

    09. Когда-нибудь (instrumental)

    10. Лето (instrumental)

    11. Научи (instrumental)

    Номер по каталогу: М2БА-0043

    05. Бумажный кораблик

    08. Пыльца лунной бабочки

    10. Переменный ветер

    12. Танец (feat. Андрей Казаченко)

    Отчёт EAC об извлечении, выполненном 20. марта 2016, 5:08

    Нуки (Nookie) / Пыльца лунной бабочки

    Дисковод: PIONEER BD-RW BDR-207D Adapter: 1 ID: 0

    Режим чтения : Достоверность

    Использование точного потока : Да

    Отключение кэша аудио : Да

    Использование указателей C2 : Нет

    Коррекция смещения при чтении : 667

    Способность читать области Lead-in и Lead-out : Нет

    Заполнение пропущенных сэмплов тишиной : Да

    Удаление блоков с тишиной в начале и конце : Нет

    При вычислениях CRC использовались нулевые сэмплы : Да

    Интерфейс : Встроенный Win32-интерфейс для Win NT/2000

    Выходной формат : Пользовательский кодировщик

    Выбранный битрейт : 128 kBit/s

    Добавление ID3-тега : Нет

    Утилита сжатия : D:\Установленные\Exact Audio Copy\Flac\flac.exe

    Дополнительные параметры : -V -8 -T "Date=%year%" -T "Genre=%genre%" %source%

    TOC извлечённого CD

    Трек | Старт | Длительность | Начальный сектор | Конечный сектор

    1 | 0:00.00 | 3:35.54 | 0 | 16178

    2 | 3:35.54 | 3:20.50 | 16179 | 31228

    3 | 6:56.29 | 2:53.57 | 31229 | 44260

    4 | 9:50.11 | 5:20.41 | 44261 | 68301

    5 | 15:10.52 | 5:38.00 | 68302 | 93651

    6 | 20:48.52 | 4:36.26 | 93652 | 114377

    7 | 25:25.03 | 3:51.09 | 114378 | 131711

    8 | 29:16.12 | 3:38.51 | 131712 | 148112

    9 | 32:54.63 | 4:07.40 | 148113 | 166677

    10 | 37:02.28 | 3:51.47 | 166678 | 184049

    11 | 40:54.00 | 4:02.15 | 184050 | 202214

    12 | 44:56.15 | 4:07.49 | 202215 | 220788

    Характеристики диапазона извлечения и сообщения об ошибках

    Имя файла E:\МузоНчиК\lossless\Слот (Slot) (+Нуки (Nookie))\4) Нуки (Nookie)\2015 - Пыльца лунной бабочки [M2BA™]\Image_CD.wav

    Пиковый уровень 98.8 %

    Скорость извлечения 7.0 X

    Качество диапазона 99.9 %

    CRC теста B0192326

    CRC копии B0192326

    Ошибок не произошло

    ==== Контрольная сумма отчёта EFA39ED1F87242D7EA387BAC5039C8C6CBD2534EFB4C1DCCA0664190BDB4ACB2 ====

    Номер по каталогу: неизвестен/отсутствует

    01. Танцуй, клоун, танцуй

    02. Пепел (Amanita version)

    03. Живы! (Amanita version)

    Игорь «КЭШ» Лобанов — вокал

    Сергей «ID» Боголюбский — гитара, аранжировки

    Никита Муравьев — бас-гитара

    Василий «Ghost» Горшков — ударные

    Однако уже в том году Теона Дольникова покинула коллектив, а ещё через год группу покинул один из её основателей - басист Денис Хромых, и барабанщик Алексей «Proff» Назарчук; на их места приходят Ульяна «IF» Елина, Михаил «muxeu4» Королёв и Кирилл «Дуду» Качанов, соответственно. С вокалом Ульяны был записан второй альбом группы 2 войны, вышедший в 2006 году. Однако здесь повторилась история с Теоной: Ульяна также покинула коллектив из-за личных конфликтов с другими участниками группы; вместе с ней уходит Королёв. Однако вскоре участники группы нашли новую вокалистку Дарию «Нуки» Ставрович, которая остаётся вокалисткой группы по сей день; новым басистом группы стал Михаил «MiX» Петров. С Нуки альбом 2 войны был перезаписан и выпущен заново в 2007 году под названием Две войны.

    В том же году состоялся релиз третьего альбома группы Тринити, звучание которого было сделано в стиле ню-метал. Одним из треков стала кавер-версия песни «Улица Роз» группы «Ария». Альбом получил одобрение музыкальных критиков.

    Ещё через два года вышел четвёртый альбом 4ever, в записи которого участвовал легендарный Сергей Маврин. Продюсером альбома, как и предыдущего, выступил Кирилл Немоляев. В том же году группу вновь покидает бас-гитарист, на место которого приходит юный Никита «NiXoN» Симонов.

    В 2010 году вышел первый сборник группы The Best Of…, а также мини-альбом Mirrors.

    Через год за ним последовал пятый альбом F5; в записи одного из треков принял участие Артур Беркут, в то время фронтмен группы «Ария». В двухдисковом издании к нему прилагался англоязычный альбом Break The Code, который состоит из англоязычных вариантов старых песен, поэтому в официальную нумерацию не входит.

    В марте 2011 года прошли съёмки клипа «Kill me baby one more time». Режиссёр Святослав Подгаевский. В основе сюжета — история, произошедшая с единственной девушкой коллектива — Нуки.

    В 2013 году вышел альбом Шестой, который был профинансирован посредством краудфандинга. Через год группу покидает Никита Симонов, на место которого приходит Никита Муравьёв.

    18 апреля 2014 года вокалистка Дария Ставрович подверглась нападению безумного поклонника в Санкт-Петербурге у кафе «Стокер», где должна была состояться автограф-сессия группы. Дария с ножевым ранением в шею была госпитализирована в реанимацию Мариинской больницы[7]. Дарии сделали операцию на сосудах шеи и трахее. 28 апреля Нуки выписали из больницы.

    В 2015 году вышел мини-альбом Бой!. В том же году из группы уходит Кирилл Качанов, место которого занимает Василий Горшков. В феврале 2016 года выходит седьмой студийный альбом Septima.

    03.04.2016 - торрент перезалит ввиду того, что в раздачу добавлены следующие релизы: