File-Portal

арена скачать через торрент

Рейтинг: 4.3/5.0 (378 проголосовавших)

Категория: Торрент-файлы

Описание

Quake 3 Arena - скачать игры через торрент - скачать игры на psp

Quake 3 Arena

Арена скачать через торрент

Год выпуска: 1999

Жанр: Quake III Arena

developer: id Software

Windows 95, 98, NT, ME, XP

Процессор 233 Мгц и выше

3D Ускоритель 4Mb, OpenGL-совместимый.

Ну что вам рассказать про Сингапур, друзья мои

Все по-моему предельно понятно и известно:

Quake 3 - это гениальная игра от ID Software

Ну а какие они у нее еще есть??

Фантастический многопользовательский экшн,

оторваться от которого решительно невозможно.

Эта игра просто нужна. Всем.

Патч до версии 1.32

Арена скачать через торрент Арена скачать через торрент Арена скачать через торрент Арена скачать через торрент

Похожие новости Комментарии (1)

Посетители, находящиеся в группе Гости, не могут оставлять комментарии к данной публикации.

арена скачать через торрент:

  • скачать
  • скачать
  • Другие статьи

    Смертельные игры

    Скачать торрент Смертельные игры / Arena (2011) BDRip бесплатно

    Арена скачать через торрент

    Оригинальное название: Arena

    Название: Арена / Смертельные игры

    Год выхода: 2011

    Режиссер: Джона Луп

    В ролях: Келлан Латс,Нина Добрев,Сэмюэл Л. Джексон,Джеймс Римар,Дэниэл Дэ Ким,Бо Брассо,Майра Лил,Ванесса Бренч,Джонни Месснер,Дерек Мирси

    Перевод: Профессиональный многоголосый

    Арена скачать через торрент

    Арена скачать через торрент

    Арена скачать через торрент

    Видео: 720x304 (2.37:1), 23.976 fps, XviD build 72

    1821 kbps avg, 0.35 bit/pixel

    Звук: 48 kHz, AC3 Dolby Digital, 3/2 (L,C,R,l,r) + LFE ch,

    Скачать фильм Смертельные игры

    Скачать фильм Смертельные игры / Arena (Джона Луп) [2011, боевик, триллер, DVDRip] AVO - торрент

    Нажмите на синюю кнопку ниже, чтобы скачать фильм бесплатно через торрент. Фильм доступен на нашем торрент-трекере бесплатно, без регистрации и смс.

    Арена скачать через торрентПеревод: Авторский (Вячеслав Замез) , cубтитры: отсутствуют

    Арена скачать через торрент Арена скачать через торрент

    1679 kbps avg, 0.32 bit/pixel

    Аудио: 48 kHz, AC3 Dolby Digital, 3/2 (L,C,R,l,r) + LFE ch,

    Complete name : E:\arena_[my-tfile.org].avi

    Format/Info : Audio Video Interleave

    File size : 1.41 GiB

    Duration : 1h 34mn

    Overall bit rate : 2 137 Kbps

    Writing application : VirtualDubMod 1.5.10.3 (build 2550/release)

    Writing library : VirtualDubMod build 2550/release

    Format : MPEG-4 Visual

    Format profile : Advanced Simple@L5

    Format settings, BVOP : 3

    Format settings, QPel : Yes

    Format settings, GMC : 3 warppoints

    Format settings, Matrix : Default (MPEG)

    Codec ID/Hint : XviD

    Duration : 1h 34mn

    Bit rate : 1 680 Kbps

    Width : 720 pixels

    Height : 304 pixels

    Display aspect ratio : 2.35:1

    Frame rate : 23.976 fps

    Color space : YUV

    Chroma subsampling : 4:2:0

    Bit depth : 8 bits

    Scan type : Progressive

    Compression mode : Lossy

    Stream size : 1.11 GiB (79%)

    Writing library : XviD 1.2.0.dev47 (UTC 2006-11-01)

    Format/Info : Audio Coding 3

    Mode extension : CM (complete main)

    Duration : 1h 34mn

    Bit rate mode : Constant

    Bit rate : 448 Kbps

    Channel(s) : 6 channels

    Channel positions : Front: L C R, Side: L R, LFE

    Sampling rate : 48.0 KHz

    Bit depth : 16 bits

    Compression mode : Lossy

    Delay relative to video : 1s 0ms

    Stream size : 302 MiB (21%)

    Alignment : Split accross interleaves

    Interleave, duration : 42 ms (1.00 video frame)

    Interleave, preload duration : 500 ms

    Арена скачать через торрент

    Арена скачать через торрент

    Арена скачать через торрент

    Арена скачать через торрент

    Арена скачать через торрент

    Арена скачать через торрент

    Арена скачать через торрент

    Арена скачать через торрент

    Арена скачать через торрент

    Арена скачать через торрент

    Арена скачать через торрент

    Арена скачать через торрент

    Информация о торренте:

    Скачан: 44153 раза

    Статус: Проверен Зарегистрирован на трекере: 2011-10-06 23:51

    Игра Quake III - Arena скачать торрент

    Quake III - Arena

    Арена скачать через торрент

    Описание: Культовая компьютерная игра в жанре многопользовательского шутера от первого лица, изданная компанией id Software 2 декабря 1999 года, третья в серии игр Quake и первая, не имеющая полноценного однопользовательского режима.

    Название: Quake 3 - Arena скачать торрент

    Год выхода: 2000

    Разработчик: ID Software

    Лекарство: Не требуется

    √ Операционная система: Windows XP/Vista/Windows 7

    √ Процессор: Pentium III 500 MГц

    √ Видеокарта: 64 МБ, DirectX 9.0

    √ Аудиокарта: Совместимая с DirectX 9.0c

    √ Свободное место на ЖД: 470 МБ

    √ DVD-привод: Не требуется

    Free For All - режим "каждый сам за себя";

    Capture The Flag (CTF) — захват флага. Цель — захватить вражеский флаг и принести на свою «базу».

    -- Ничего не перекодировано

    -- Установка всего необходимого дополнительного ПО

    -- Время установки 2 мунуты

    -- Отлично работает с Windows 7 x86/x64

    -- Запуск игры через ярлык на рабочем столе или через папку в меню Пуск

    -- Релиз группы: R.G.Creative

    -- Автор репака: Dim(AS)s

    Скачать Смертельные игры

    На главную

    Интернет-проект Game-Over1.Net - это возможность скачать игры, фильмы, СОФТ с помощью Torrent. Игры в самых разных жанрах, фильмы на любой вкус, а также компьютерные программы и Прочие.

    • Арена скачать через торрент

  • Арена скачать через торрент

  • Арена скачать через торрент

  • Арена скачать через торрент

  • Арена скачать через торрент

    Смертельные игры / Арена / Arena (2011) DVD5

    Автор: LazarchukYura от 02.02.2016, 12:44, Посмотрело: 213, Скачали:0

    Арена скачать через торрент

    Год выпуска : 2011

    Cубтитры : английский, арабский, чешский, греческий, иврит, хинди, исладский, польский, португальский, словацкий, турецкий, украинский, русский - forсed

    Оригинальная аудиодорожка : английский

    Тип релиза : DVD5 (сжатый)

    Контейнер : DVD Video

    5675 kbps Auto Letterboxed

    Аудио 1 : 48 kHz, Dolby AC3 5.1, 384 kbps, Русский

    Аудио 2 : 48 kHz, Dolby AC3 5.1, 448 kbps, Английский