File-Portal

скачать через торрент альбом джанго

Рейтинг: 5.0/5.0 (295 проголосовавших)

Категория: Торрент-файлы

Описание

Джанго - Выше


Год: 2013
Жанр: Поп-рок
Страна: Россия, Украина
Название: Выше. Ещё
Исполнитель: Джанго
Продолжительность: 01:17:20
Формат/Кодек: MP3
Битрейт аудио: 320

Описание:
Джанго - Выше. Ещё - Алексей Поддубный представил общественности свой новый студийный альбом под названием Выше. Ещё. Альбом получился необычным в плане треклиста, так как здесь больше бонусных треков, чем основных композиций, а в сумме песен на альбоме более двадцати штук.

Треклист:
01. До тебя (3:21)
02. Босая осень (2:39)
03. Надо мной (4:24)
04. Другая жизнь (2:54)
05. Когда придет апрель (3:27)
06. Лето на семнадцатой аллее (3:11)
07. Выше. Еще (4:44)
08. Ты люби меня просто так (3:19)
09. Снег (5:07)
Bonus
10. Куда уходит детство (3:48 )
11. Сожги это фото (5:07)
12. Пальтецо (4:05)
13. Была не была (3:52)
14. Возвращайся, ты слишком далеко (3:43)
15. Гуляй-гроза (3:45)
16. Тринадцать серебряных лун (3:43)
17. Венгерка (3:29)
18. Папаган (3:25)
19. Серебрится дорога (3:22)
20. Холодная весна (3:07)
21. Метель (2:47)
СКАЧАТЬ ТОРРЕНТ

Похожие новости Комментарии (0)

скачать через торрент альбом джанго:

  • скачать
  • скачать
  • Другие статьи

    Скачать торрент Джанго - Выше

    Свободный торрент трекер рутор орг зеркало.

    У многих в последнее время не работает рутор или руторг зеркало. многие думают, что рутор закрыли. или рутор заблокировали. Приходится искать другие торренты типа нью рутор. чтобы скачать фильмы торрент. игры или музыку. Специально для пользователей торрент ов мы создали свое зеркало рутора. Нас не заблокируют. не закроют. наше зеркало рутора крутор орг. доступно всегда. Все релизы рутора у нас появляются моментально, новинки сериалов. новики фильмов торрент. последние новинки игр для pc все это у нас имееется, и все это очень просто и быстро скачать. Скачивайте фильмы 2015 через торрент. игры torrent. книги. музыку. обои. сериалы. Не нужно больше искать где-то еще, и попадать под риск, скачивая подозрительные ехе или что-то подобное. KRUTOR.org самое надежное зеркало rutor в рунете. KRUTOR.org на данный момент одно из самых стабильных зеркалруторг трекер а. На нем вы найдете rutor org игры (рутор игры ), руторг мультики. rutor org поиск. Есть много других зеркал, на подобии rutor net. rutor org new. новый рутор. но наш torrent tracker самый стабильный и безопасный. Скачивая торренты через наш KRUTOR.orgруторг трекер вы не рискуете ничем. KRUTOR.org скачать бесплатно руторг .

    Скачать торрент Джанго - Выше. Ещё (2013) MP3


    Продолжительность: 01:17:20
    Формат/Кодек: MP3
    Битрейт аудио: 320

    Дополнительная информация:
    Алексей Поддубный. более известный как Джанго — украинский и российский поп/рок/фолк-композитор, исполнитель, вокалист и аранжировщик. Лидер и руководитель одноименной группы "Джанго".
    Музыкальный проект "Джанго" под руководством Алексея Поддубного добился популярности в России и на Украине после того, как композиция "Холодная весна" была использована в качестве заглавной песни саундтрека к фильму "Бой с тенью" (2005 г.). Сам Алексей также известен как композитор и аранжировщик, сотрудничающий с российскими и украинскими эстрадными исполнителями.

    Скачать музыка Джанго - Дискография Opus - ТОРРЕНТИНО - торрент трекер

    Джанго - Дискография (2007-2013) Opus

    Название: Дискография
    Исполнитель: Джанго
    Год: 2007-2013
    Жанр: Pop, Rock
    Страна: Украина (Киев)
    Продолжительность: 01:11:32
    Формат/Кодек: Opus
    Битрейт аудио: 320 VBR
    Официальный сайт
    Трек-лист2007 - Была не была
    1. Гуляй-гроза (4:48)
    2. Серебрится дорога (3:23)
    3. До свиданья, Лондон! (3:53)
    4. Была не была (3:53)
    5. Вчера, сегодня, завтра (3:55)
    6. Папаган (3:24)
    7. Холодная весна (3:12)
    8. Сожги это фото (5:10)
    9. Возвращайся, ты слишком далеко (3:49)
    10. Венгерка (3:37)
    11. Пальтецо (4:06)
    12. Тринадцать серебряных лун (3:42)
    13. Метель (2:48)
    14. Bonus track: Дорогой длинною (2:51)
    15. Bonus track: Возвращайся, ты слишком далеко (RMX by Shura Molotov 20) (3:53)
    2008-2013 - Синглы
    2008. Джанго - Ты люби меня просто так. (3:16)
    2009. Джанго - Лето на семнадцатой аллее (3:09)
    2010. Джанго - Босая Осень (2:41)
    2011. Джанго - Когда придет апрель (3:33)
    2013. Джанго - До Тебя (3:24)

    Похожие торренты

    Комментарии

    К сожалению пока никто не оставил комментарий ;(

    © 2009–2017, Торрентино
    По всем вопросам обращаться на admin@torrentino.me

    Правообладателям просьба писать вежливо и своевременно: abuse@torrentino.me и мы отнесемся к вашей просьбе с пониманием.

    Скачать музыку Джанго - Выше

    Скачать музыку Джанго - Выше. Еще / [2013, Pop Rock, FLAC] - торрент

    Джанго - Выше. Еще
    Формат: FLAC, (image + .cue), lossless
    Год выпуска: 2013
    Страна: Россия
    Жанр: Pop Rock
    Продолжительность: 01:17:20
    Описание:
    01. До тебя (3:21)
    02. Босая осень (2:39)
    03. Надо мной (4:24)
    04. Другая жизнь (2:54)
    05. Когда придет апрель (3:27)
    06. Лето на семнадцатой аллее (3:11)
    07. Выше. Еще (4:44)
    08. Ты люби меня просто так (3:19)
    09. Снег (5:07)

    Bonus
    10. Куда уходит детство (3:48 )
    11. Сожги это фото (5:07)
    12. Пальтецо (4:05)
    13. Была не была (3:52)
    14. Возвращайся, ты слишком далеко (3:43)
    15. Гуляй-гроза (3:45)
    16. Тринадцать серебряных лун (3:43)
    17. Венгерка (3:29)
    18. Папаган (3:25)
    19. Серебрится дорога (3:22)
    20. Холодная весна (3:07)
    21. Метель (2:47)

    Доп. информация:
    Новый альбом Алексея Поддубного и Ко, в который вошли песни, записанные и исполненные в 2008-2013г.

    Алексей Поддубный об альбоме


    Наконец-то получилось выпустить альбом, который много лет не выходил в силу того, что песни я собирал очень долго и тщательно, поскольку хотелось сделать всё на высшем уровне. И вот, наш долгожданный диск «Выше. Ещё» появился. Мы сами разрабатывали концепцию обложки альбома: это символ человека, идущего и постоянно стремящегося к свету, и понимающему, что как бы он не поднимался и не становился лучше, все равно что-то будет еще чище и выше и к чему он будет стремиться в любом случае. Сколько не учись, всему не научишься. И всегда надо смотреть вверх, а не катиться вниз.

    А вообще, хотелось бы, чтобы красивые песни вызывали в душе человека положительные чувства. Хотелось отвлечь от рутины, гонки, печальных мыслей. Хотелось, чтобы то, что я делаю, пригодилось. Ведь, чтобы ты не создавал, самое важное, чтобы это приносило радость и пользу!

    Лог создания рипа

    Exact Audio Copy V1.0 beta 3 from 29. August 2011

    Отчёт EAC об извлечении, выполненном 26. октября 2013, 18:00

    Джанго / Выше. Еще

    Дисковод: ASUS DRW-2014S1T Adapter: 2 ID: 1

    Режим чтения. Достоверность
    Использование точного потока. Да
    Отключение кэша аудио. Да
    Использование указателей C2. Нет

    Коррекция смещения при чтении. 6
    Способность читать области Lead-in и Lead-out. Нет
    Заполнение пропущенных сэмплов тишиной. Да
    Удаление блоков с тишиной в начале и конце. Нет
    При вычислениях CRC использовались нулевые сэмплы. Да
    Интерфейс. Встроенный Win32-интерфейс для Win NT/2000

    Выходной формат. Пользовательский кодировщик
    Выбранный битрейт. 768 kBit/s
    Качество. Высокий
    Добавление ID3-тега. Нет
    Утилита сжатия. C:\Program Files (x86)\Exact Audio Copy\FLAC\FLAC.EXE
    Дополнительные параметры. -6 -V -T "ARTIST=%artist%" -T "TITLE=%title%" -T "ALBUM=%albumtitle%" -T "DATE=%year%" -T "TRACKNUMBER=%tracknr%" -T "GENRE=%genre%" -T "COMMENT=%comment%" -T "BAND=%albuminterpret%" -T "ALBUMARTIST=%albuminterpret%" -T "COMPOSER=%composer%" %haslyrics%--tag-from-file=LYRICS="%lyricsfile%"%haslyrics% -T "DISCNUMBER=%cdnumber%" -T "TOTALDISCS=%totalcds%" -T "TOTALTRACKS=%numtracks%" %hascover%--picture="%coverfile%"%hascover% %source% -o %dest%

    TOC извлечённого CD

    Трек | Старт | Длительность | Начальный сектор | Конечный сектор
    ---------------------------------------------------------------------
    1 | 0:00.00 | 3:21.33 | 0 | 15107
    2 | 3:21.33 | 2:39.18 | 15108 | 27050
    3 | 6:00.51 | 4:23.50 | 27051 | 46825
    4 | 10:24.26 | 2:53.71 | 46826 | 59871
    5 | 13:18.22 | 3:26.64 | 59872 | 75385
    6 | 16:45.11 | 3:11.36 | 75386 | 89746
    7 | 19:56.47 | 4:44.37 | 89747 | 111083
    8 | 24:41.09 | 3:18.72 | 111084 | 126005
    9 | 28:00.06 | 5:06.51 | 126006 | 149006
    10 | 33:06.57 | 3:48.28 | 149007 | 166134
    11 | 36:55.10 | 5:07.14 | 166135 | 189173
    12 | 42:02.24 | 4:04.43 | 189174 | 207516
    13 | 46:06.67 | 3:52.20 | 207517 | 224936
    14 | 49:59.12 | 3:43.00 | 224937 | 241661
    15 | 53:42.12 | 3:45.18 | 241662 | 258554
    16 | 57:27.30 | 3:42.70 | 258555 | 275274
    17 | 61:10.25 | 3:29.19 | 275275 | 290968
    18 | 64:39.44 | 3:24.65 | 290969 | 306333
    19 | 68:04.34 | 3:22.12 | 306334 | 321495
    20 | 71:26.46 | 3:06.68 | 321496 | 335513
    21 | 74:33.39 | 2:47.33 | 335514 | 348071

    Характеристики диапазона извлечения и сообщения об ошибках

    Имя файла D:\Джанго - Выше. Еще.wav

    Пиковый уровень 100.0 %
    Скорость извлечения 6.4 X
    Качество диапазона 99.9 %
    CRC теста 7E5F63C4
    CRC копии 7E5F63C4
    Копирование. OK

    Ошибок не произошло

    Содержание индексной карты (.CUE)

    REM GENRE Pop/rock
    REM DATE 2013
    REM DISCID 34122015
    REM COMMENT "ExactAudioCopy v1.0b3"
    PERFORMER "Джанго"
    TITLE "Выше. Еще"
    FILE "Джанго - Выше. Еще.flac" WAVE
    TRACK 01 AUDIO
    TITLE "До тебя"
    PERFORMER "Джанго"
    FLAGS DCP
    INDEX 01 00:00:00
    TRACK 02 AUDIO
    TITLE "Босая осень"
    PERFORMER "Джанго"
    FLAGS DCP
    INDEX 00 03:20:33
    INDEX 01 03:21:33
    TRACK 03 AUDIO
    TITLE "Надо мной"
    PERFORMER "Джанго"
    FLAGS DCP
    INDEX 00 05:59:51
    INDEX 01 06:00:51
    TRACK 04 AUDIO
    TITLE "Другая жизнь"
    PERFORMER "Джанго"
    FLAGS DCP
    INDEX 00 10:23:26
    INDEX 01 10:24:26
    TRACK 05 AUDIO
    TITLE "Когда придет апрель"
    PERFORMER "Джанго"
    FLAGS DCP
    INDEX 00 13:17:22
    INDEX 01 13:18:22
    TRACK 06 AUDIO
    TITLE "Лето на семнадцатой аллее"
    PERFORMER "Джанго"
    FLAGS DCP
    INDEX 00 16:44:11
    INDEX 01 16:45:11
    TRACK 07 AUDIO
    TITLE "Выше. Еще"
    PERFORMER "Джанго"
    FLAGS DCP
    INDEX 00 19:55:47
    INDEX 01 19:56:47
    TRACK 08 AUDIO
    TITLE "Ты люби меня просто так"
    PERFORMER "Джанго"
    FLAGS DCP
    INDEX 00 24:40:09
    INDEX 01 24:41:09
    TRACK 09 AUDIO
    TITLE "Снег"
    PERFORMER "Джанго"
    FLAGS DCP
    INDEX 00 27:59:06
    INDEX 01 28:00:06
    TRACK 10 AUDIO
    TITLE "Куда уходит детство"
    PERFORMER "Джанго"
    FLAGS DCP
    INDEX 00 33:05:57
    INDEX 01 33:06:57
    TRACK 11 AUDIO
    TITLE "Сожги это фото"
    PERFORMER "Джанго"
    FLAGS DCP
    INDEX 00 36:54:10
    INDEX 01 36:55:10
    TRACK 12 AUDIO
    TITLE "Пальтецо"
    PERFORMER "Джанго"
    FLAGS DCP
    INDEX 00 42:01:24
    INDEX 01 42:02:24
    TRACK 13 AUDIO
    TITLE "Была не была"
    PERFORMER "Джанго"
    FLAGS DCP
    INDEX 00 46:05:67
    INDEX 01 46:06:67
    TRACK 14 AUDIO
    TITLE "Возвращайся, ты слишком далеко"
    PERFORMER "Джанго"
    FLAGS DCP
    INDEX 00 49:58:12
    INDEX 01 49:59:12
    TRACK 15 AUDIO
    TITLE "Гуляй-гроза"
    PERFORMER "Джанго"
    FLAGS DCP
    INDEX 00 53:41:12
    INDEX 01 53:42:12
    TRACK 16 AUDIO
    TITLE "Тринадцать серебряных лун"
    PERFORMER "Джанго"
    FLAGS DCP
    INDEX 00 57:26:30
    INDEX 01 57:27:30
    TRACK 17 AUDIO
    TITLE "Венгерка"
    PERFORMER "Джанго"
    FLAGS DCP
    INDEX 00 61:09:25
    INDEX 01 61:10:25
    TRACK 18 AUDIO
    TITLE "Папаган"
    PERFORMER "Джанго"
    FLAGS DCP
    INDEX 00 64:38:44
    INDEX 01 64:39:44
    TRACK 19 AUDIO
    TITLE "Серебрится дорога"
    PERFORMER "Джанго"
    FLAGS DCP
    INDEX 00 68:03:34
    INDEX 01 68:04:34
    TRACK 20 AUDIO
    TITLE "Холодная весна"
    PERFORMER "Джанго"
    FLAGS DCP
    INDEX 00 71:25:46
    INDEX 01 71:26:46
    TRACK 21 AUDIO
    TITLE "Метель"
    PERFORMER "Джанго"
    FLAGS DCP
    INDEX 00 74:32:39
    INDEX 01 74:33:39

    Информация о торренте:

    Размер содержимого: 577.2 MB
    Скачан: 2394 раза
    Статус: Проверен Зарегистрирован на трекере: 2014-01-10 15:36

    Джанго - Выше

    Популярные торренты

    GTA / Grand Theft Auto: Криминальная Россия (2010) PC |.
    GTA San Andreas (2005) PC | 2CD
    3D Инструктор [2.2.7] + 100 машин (2011) PC
    Call of Duty 2 (2005) PC | RePack
    GTA 4 / Grand Theft Auto IV in style GTA V (2014) PC |.
    AutoCAD 2012 (2012) PC
    GTA: San Andreas - Криминальная Россия (2010) PC
    Fallout 3: Золотое издание (2010) PC | все 5 DLC на рус.
    Сборник - Всё сразу 200 хитов Выпуск 3 (2015) MP3
    Shrek 2: The Game (2004) PC | Лицензия

    Джанго - Выше. Еще (2013) MP3


    Название: Выше. Еще
    Исполнитель: Джанго
    Год: 2013
    Жанр: Pop-Rock
    Продолжительность: 01:17:26
    Формат/Кодек: MP3
    Битрейт аудио: 320 Kbps

    01. До тебя
    02. Босая осень
    03. Надо мной
    04. Другая жизнь
    05. Когда придет апрель
    06. Лето на семнадцатой аллее
    07. Выше. Еще
    08. Ты люби меня просто так
    09. Снег
    10. Куда уходит детство
    11. Сожги это фото
    12. Пальтецо
    13. Была не была
    14. Возвращайся, ты слишком далеко
    15. Гуляй-гроза
    16. Тринадцать серебряных лун
    17. Венгерка
    18. Папаган
    19 Серебрится дорога
    20 Холодная весна
    21. Метель