File-Portal

Скачать Торрент Ганц О 2016

Рейтинг: 4.0/5.0 (187 проголосовавших)

Категория: Торрент-файлы

Описание

Скачать аниме Ганц: О

Скачать аниме Ганц: О / Gantz: O (Ясуси Кавамура, Кейити Саито) [Movie] [RAW] [RUS(int)] [2016, приключения, фантастика, HDRip-AVC] - торрент

Скачать аниме через торрент бесплатно. Аниме доступен на нашем торрент-трекере бесплатно, без регистрации и смс.

«Еще один шанс после смерти. »

Режиссер: Ясуси Кавамура, Кейити Саито

Перевод озвучивают: Ульяна Иващенко, Алёна Андронова, Маргарита Корш, Екатерина Муравицкая, Артём Бахтин, Станислав Черсков, Кирилл Патрино, Михаил Суслов

Где-то в Токио расположена обычная с виду комната, где находится чёрная сфера под названием Ганц. Время от времени в комнату телепортируются люди, которые буквально перед телепортированием должны были умереть. Сфера снабжает их оружием и спецкостюмами и отправляет на смертельно опасное задание - убивать пришельцев, обосновавшихся на Земле, о чём обычные люди не догадываются.

С заданий возвращаются не все.

2400 Kbps avg, 0.149 bit/pixel

Аудио: 48.0 kHz, AC3 Dolby Digital, 6 channels (Front: L C R, Side: L R, LFE), 384 kbps avg

Полноэкранное изображение (16:9) без "черных" полос. Рип с BDRipL 1080p. Автор рипа: Д.И.С. Релиз группы:

Уникальный идентификатор : 288468815143242765652018096291404873802 (0xD90512AA4559A81B68020C054DC0804A)

Полное имя : D:\Video\gantz_o_2016_alexfilm_rip_DIS_[my-tfile.org].mkv

Версия формата : Version 4 / Version 2

Размер файла : 1,69 Гбайт

Продолжительность : 1 ч. 35 м.

Общий поток : 2548 Кбит/сек

Название фильма : Gantz:O (2016)

Программа кодирования : XviD4PSP 7.0.369 DAILY

Библиотека кодирования : Lavf57.41.100 / Lavf57.41.100

Примечание : rip by Д.И.С. / batone for my-tfile.org

ENCODING_INFO : MATROSKA,WEBM > MKV / H264 > X264 CBR 2400kbps HQ / AC3 > AC3 CBR 384kbps

Формат/Информация : Advanced Video Codec

Профиль формата : High@L3.1

Параметр CABAC формата : Да

Параметр ReFrames формата : 4 кадра

Идентификатор кодека : V_MPEG4/ISO/AVC

Продолжительность : 1 ч. 35 м.

Битрейт : 2114 Кбит/сек

Номинальный битрейт : 2400 Кбит/сек

Ширина : 1024 пикселя

Высота : 576 пикселей

Соотношение сторон : 16:9

Режим частоты кадров : Постоянный

Частота кадров : 24,000 кадра/сек

Цветовое пространство : YUV

Субдискретизация насыщенности : 4:2:0

Битовая глубина : 8 бит

Тип развёртки : Прогрессивная

Размер потока : 1,41 Гбайт (83%)

Библиотека кодирования : x264 core 148 r2762M 90a61ec

Настройки программы : cabac=1 / ref=3 / deblock=1:-1:-1 / analyse=0x3:0x133 / me=hex / subme=7 / psy=1 / psy_rd=1.00:0.20 / mixed_ref=1 / me_range=16 / chroma_me=1 / trellis=1 / 8x8dct=1 / cqm=0 / deadzone=21,11 / fast_pskip=1 / chroma_qp_offset=-3 / threads=9 / lookahead_threads=1 / sliced_threads=0 / nr=0 / decimate=1 / interlaced=0 / bluray_compat=0 / constrained_intra=0 / bframes=3 / b_pyramid=2 / b_adapt=2 / b_bias=0 / direct=3 / weightb=1 / open_gop=0 / weightp=2 / keyint=240 / keyint_min=24 / scenecut=40 / intra_refresh=0 / rc_lookahead=40 / rc=cbr / mbtree=1 / bitrate=2400 / ratetol=1.0 / qcomp=0.60 / qpmin=0 / qpmax=69 / qpstep=4 / vbv_maxrate=2400 / vbv_bufsize=1714 / nal_hrd=none / filler=0 / ip_ratio=1.40 / aq=1:1.00

ENCODING_INFO : x264 - core 148 r2721kMod 72d53ab - H.264/MPEG-4 AVC codec - Copyleft 2003-2016 - http://www.videolan.org/x264.html - options: cabac=1 ref=16 deblock=1:-2:-2 analyse=0x3:0x133 me=umh subme=10 psy=1 fade_compensate=0.00 psy_rd=1.00:0.15 mixed_ref=1 me_range=24 chroma_me=1 trellis=2 8x8dct=1 cqm=0 deadzone=21,11 fast_pskip=0 chroma_qp_offset=-3 threads=18 lookahead_threads=4 sliced_threads=0 nr=0 decimate=1 interlaced=0 bluray_compat=0 constrained_intra=0 fgo=0 bframes=16 b_pyramid=2 b_adapt=2 b_bias=0 direct=3 weightb=1 open_gop=0 weightp=2 keyint=250 keyint_min=23 scenecut=40 intra_refresh=0 rc_lookahead=60 rc=2pass mbtree=1 bitrate=10240 ratetol=1.0 qcomp=0.60 qpmin=0 qpmax=81 qpstep=4 cplxblur=20.0 qblur=0.5 ip_ratio=1.40 aq=1:1.00

Формат/Информация : Audio Coding 3

Параметр Endianness формата : Big

Идентификатор кодека : A_AC3

Продолжительность : 1 ч. 35 м.

Вид битрейта : Постоянный

Битрейт : 384 Кбит/сек

Каналы : 6 каналов

Расположение каналов : Front: L C R, Side: L R, LFE

Частота : 48,0 КГц

Частота кадров : 31,250 кадров/сек (1536 spf)

Битовая глубина : 16 бит

Метод сжатия : С потерями

Задержка видео : -83 мс.

Размер потока : 262 Мбайт (15%)

Заголовок : DD5.1 AlexFilm

ServiceKind/String : Complete Main

Скачать торрент ганц о 2016

Скачать торрент ганц о 2016

Скачать торрент ганц о 2016

Скачать торрент ганц о 2016

Скачать торрент ганц о 2016

Скачать торрент ганц о 2016

Скачать торрент ганц о 2016

Скачать торрент ганц о 2016

Скачать торрент ганц о 2016

Скачать торрент ганц о 2016

Скачать торрент ганц о 2016

Информация о торренте:

Скачан: 2917 раз

Статус: Проверен Зарегистрирован на трекере: 2017-03-25 17:56

скачать торрент ганц о 2016:

  • скачать
  • скачать
  • Другие статьи

    Скачать торрент Ганц: О

    Скачать торрент Ганц: О / Gantz: O (2016) HDRip от FreeRutor | P

    Скачать торрент ганц о 2016

    Скачать торрент ганц о 2016

    Оригинальное название: Gantz: O

    Режиссер: Ясуси Кавамура, Кейити Саито

    В ролях: Дайсукэ Оно, Саори Хаями, Мао Итимити, Тэруаки Огава, Масая Оносака, Юки Кадзи, Томохиро Каку, Сюити Икэда, Кэндзиро Цуда, Масанэ Цукаяма

    Где-то в Токио расположена обычная с виду комната, где находится чёрная сфера под названием Ганц. Время от времени в комнату телепортируются люди, которые должны были умереть в тот самый момент. Сфера снабжает их оружием и спецкостюмами и отправляет на смертельно опасное задание: убивать пришельцев, обосновавшихся на Земле, о чём обычные люди не догадываются. С заданий возвращаются не все.

    Перевод: Профессиональный многоголосый [AlexFilm]

    Видео: XviD, 1803 Кбит/с, 720x384

    Аудио: Русский (AC3, 6 ch, 384 Кбит/с)

    Ганц: О

    скачать торрент ганц о 2016

    • Скачать торрент ганц о 2016

    Производство: Digital Frontier

    Жанр: мультфильм, фэнтези, боевик, ужасы

    Режиссеры: Ясуси Кавамура, Кейити Саито

    Авторы сценария: Хироя Оку, Цутому Куроива

    В ролях: Юки Кадзи, Дайсукэ Оно, Саори Хаями, Мао Итимити, Масая Оносака, Кэндзиро Цуда, Сюити Икэда, Тэруаки Огава, Масанэ Цукаяма

    Описание: Кэю Куроно, который после гибели под колёсами поезда метро становится частью посмертной «игры», и другим недавно погибшим людям придётся выслеживать и убивать пришельцев. Каждая миссия может закончиться окончательной смертью охотников, а на смену погибшим придут новые гантзеры.

    Перевод: Любительский (многоголосый, закадровый) | «КОЛОБОК»

    Видео: 720x400 (16:9), 23.976 fps, XviD

    Аудио: 48 kHz, AC3 Dolby Digital, 2/0 (L,R) ch,

    Дата премьеры (мир): 14 октября 2016

    Скачать торрент ганц о 2016

    Ганц: О / Gantz: O (2016) WEBRip | L

    Скачать торрент ганц о 2016

    Производство: Digital Frontier

    Год выпуска: 2016

    Авторы сценария: Хироя Оку, Цутому Куроива

    Субтитры: иероглифы (вшитые)

    Видео кодек: XviD

    Аудио кодек: АС3

    Видео: 720x400 (16:9), 23.976 fps, XviD

    Аудио: 48 kHz, AC3 Dolby Digital, 2/0 (L,R) ch,

    Тем не менее, нарисовано красиво, динамично, атмосферно и мрачно, оставляя зрителю достаточно пространства для додумывания своих сюжетных смыслов. Смотрится действительно неслабо, и особо впечатлительным зрителям, возможно, от просмотра стоит отказаться.

    Если говорить только как о фантастике - в сторону боевика, а не философии - на мой взгляд, достаточно неплохая картина.

    И, между прочим, проповедующая правильные ценности, в отличие от голливудских шаблонов.

    Ганц: О (2016) фильм скачать через торрент в хорошем качестве hd бесплатно без регистрации

    Ганц: О (2016) скачать торрент

    Скачать торрент ганц о 2016

    Скачать торрент ганц о 2016

    Оригинальное название: Gantz: O

    Год выпуска: 2016

    Жанр: Драма, ужасы, триллер

    Выпущено: Япония, Digital Frontier

    Режиссер: Ясуси Кавамура, Кейити Саито

    В ролях: Юки Кадзи, Дайсукэ Оно, Саори Хаями, Мао Итимити, Масая Оносака, Кэндзиро Цуда, Сюити Икэда, Тэруаки Огава, Масанэ Цукаяма, Томохиро Каку

    Скачать торрент ганц о 2016

    Скачать торрент ганц о 2016

    Видео: XviD, 1650 Кбит/с, 720x400

    Аудио: AC3, 2 ch, 384 Кбит/с

    Перевод: Профессиональный многоголосый