File-Portal

Рыцарь Майк Скачать Через Торрент

Рейтинг: 4.0/5.0 (42 проголосовавших)

Категория: Торрент-файлы

Описание

Рыцарь Майк (2012-2013) скачать бесплатно

Рыцарь Майк / Mike the Knight (2012-2013)

Оригинальное название: Mike the Knight

Страна: Рыцарь майк скачать через торрент Канада, Рыцарь майк скачать через торрент Великобритания

Продолжительность: 20:25:12 (все серии)

Обновлен: 23 сентября 2015

Рыцарский мультсериал, который перенесет телезрителей в волшебное Средневековье. Окунитесь в загадочный мир, наполненный древними подвигами, магией, замками и драконами! Юный Майк живет в средневековом королевстве. Сын короля и королевы, он твердо решил стать благородным рыцарем, как и его отец. Выбрав своим девизом фразу «Время быть рыцарем, а рыцарь может все!», Майк учится быть сильным, всегда поступать справедливо.

Список серий

01. Улыбающееся сокровище / Smiley Treasure

02. Охота на драконов / The hunt for dragons

03. Рыцарский торт / Knight's cake

04. Мастерство наездника / Rider skill

05. Награда за добро / The reward for good

06. Начинающий следопыт / Beginner ranger

07. Сокровище Троллей / Treasure Trolls

08. Рыцарский турнир / Tournament Knight

09. Подготовка к празднику / Preparing for the holiday

10. Тролли в беде / Trolls in trouble

11. Вечер Страшилок / Evening scare

12. Знакомство с викингами / Familiarity with the Vikings

13. Тишина для королевы / Silence for the Queen

14. Новости королевства / News of the kingdom

15. Угощение для викинга / Treats for Viking

16. Особый сигнал / Special Signal

17. Монстр под мостом / The monster under the bridge

18. Верные оруженосцы / Faithful armour-bearers

19. Рыцарские прятки / Chivalry hide

20. Почетный гость / Honoured guest

21. Дорога домой / Road home

22. Важное поручение / Important commission

23. Приключение для дракона / Adventure for a dragon

24. Королевский портрет / Royal portrait

25. Зимняя прогулка / Winter walk

26. Рождественская история / A Christmas Carol

27. День большого обмена / Day of large exchange

28. Приз для рыцаря / Prize for a knight

29. Большой парад / Large parade

30. Конкурс талантов / Competition of talents

31. Ночь в лесу / Night in-field

32. Животное для рыцаря / Zoon for a knight

33. Секрет успешного спасения / Secret of successful rescue

34. Истинная храбрость / Veritable bravery

35. Секретный ингредиент / Secret ingredient

36. Сокровище для волшебницы / Treasure for an enchantress

37. Самый лучший рыцарь / The best knight

38. Новый замок / New lock

39. Конь в горошек / Horse in a pea

40. Игры на снегу / Games on to snow

41. Увлекательная история / Enthralling history

42. Медаль за храбрость / Medal for bravery

43. Полезный рыцарь / Useful knight

44. Кукольное представление / Doll presentation

45. Пикник на пляже / Picnic on a beach

46. Волшебный горшок / Magic pot

47. Пирог с рубином / Cake with ruby ​​

48. Медвежья услуга / Bear favour

49. Великий защитник / The great defender

50. Простуженный олень / A cold deer

51. Летающие собаки / Flying dog

52. Очень важный гость / A very important guest

01. Рыцарь Майк и ночной страж / The Night Time Lookout

02. Рыцарь Майк и новый друг Иви / Evie's New Friend

03. Рыцарь Майк и супер-катапульта / The Super Trebuchet

04. Рыцарь Майк и большой оркестр Глендрагона / 04 The Glendragon Big Band

05. Рыцарь Майк и птичья тренировка / Bird Training

06. Рыцарь Майк и сломанный щит / The Broken Shield

07. Рыцарь Майк и помощь Иви / Evie's Help

08. Рыцарь Майк и ученик Тролли / Trollee, the apprentice

09. Рыцарь Майк и день обмана / Fooling Day

10. Рыцарь Майк и безопасное королевство / The Safest Kingdom

11. Рыцарь Майк и королевская пьеса / The King's Play

12. Рыцарь Майк и подарок для Тролли / The Present for Trollee

13. Рыцарь Майк и собаки / The Undragonly Dogs

14. Рыцарь Майк и рыцарь Иви / Evie the Knight

15. Рыцарь Майк и Забег Смеха / The Glendragon Fun Run

16. Рыцарь Майк и храбрая песня / The Brave Song

17. Рыцарь Майк и большая картина / The Glendragon Big Picture

18. Рыцарь Майк и рыцарский сачок / The Knightly Net

19. Рыцарь Майк и большой ремонт / The Big Fix

20. Рыцарь Майк и дракон без огня / The Fireless Dragon

21. Рыцарь Майк и рыцарь на день / The Knight for a Day

22. Рыцарь Майк и спрятанный сад / The Hidden Garden

23. Рыцарь Майк и хитрости обучения / The Knightly Training Tricks

24. Рыцарь Майк и пропавший снеговик / The Missing Snowman

27. Рыцарь Майк и Горгулья / The Gargoyle

28. Рыцарь Майк и деревянный конь / The Wooden Horse

29. Рыцарь Майк и настоящий спектакль / The Knightly Play

30. Рыцарь Майк и экскурсия по замку / Tour of the Castle

31. Рыцарь Майк и купание мистера Каддлза / Mr Cuddles' Bath Time

32. Рыцарь Майк и придворный шут / The Court Jester

33. Рыцарь Майк и Великий Вальдорфини / The Great Waldorfini

34. Рыцарь Майк и особые рыцарские вещи.

35. Рыцарь Майк и путешествие по следам Тролля / The Troll Trail Adventure

36. Рыцарь Майк и спящий дракон / The Snoring Dragon

37. Рыцарь Майк и волшебная ошибка / Evie's Magical Mistake

38. Рыцарь Майк и три задания / The Three Missions

39. Рыцарь Майк и турнир / The Super Troll Ball

40. Рыцарь Майк и лучший страж / The Best Lookout

41. Рыцарь Майк и школа для рыцарей / Knight School

42. Рыцарь Майк и день рождения Галахада / Рыцарь Майк и день рождения Галахада

43. Рыцарь Майк и точный план / Squirt Sticking to the Plan

44. Рыцарь Майк и украденный посох / The Stolen Staff

45. Рыцарь Майк и щенки Иви / Evie's Pet Puppies

46. Рыцарь Майк и волшебный цветок / The Magical Flower

47. Рыцарь Майк и заклинание

48. Рыцарь Майк и миссия Фернандо / Fernando's Mission

49. Рыцарь Майк и игры в спрятанном саду / The Hidden Garden Games

50. Рыцарь Майк и тройные неприятности / The Triple Trouble

51. Рыцарь Майк и история на ночь / The Bedtime Story

52. Рыцарь Майк и большая книга / The Big Book of Training

Рыцарь майк скачать через торрент Рыцарь майк скачать через торрент

Рыцарь майк скачать через торрент Рыцарь майк скачать через торрент

Скачать бесплатно

По качеству: SATRip сбросить фильтр

Видео: XviD, 1700 kb/s, 720x400

Аудио (русский): AC3, 192 kb/s (2 ch)

рыцарь майк скачать через торрент:

  • скачать
  • скачать
  • Другие статьи

    Рыцарь Майк — Mike the Knight (2011) Смотреть Сериал онлайн или Cкачать торрент бесплатно

    Сериал Рыцарь Майк — Mike the Knight (2011)

    Рыцарь майк скачать через торрент

    Год выпуска : 2011

    Жанр : мультфильм, семейный

    Продолжительность : 1 сезон

    Перевод : Профессиональный (Многоголосый)

    В ролях : Джэйк Бил, Колин МакФарлэйн, Эндрю Сэбистон, Элисон Корт, Эрин Питт, Мартин Роуч

    Описание Сериала : Рыцарский мультсериал, который перенесет телезрителей в волшебное Средневековье. Окунитесь в загадочный мир, наполненный древними подвигами, магией, замками и драконами!Юный Майк живет в средневековом королевстве. Сын короля и королевы, он твердо решил стать благородным рыцарем, как и его отец. Выбрав своим девизом фразу «Время быть рыцарем, а рыцарь может всё!», Майк учится быть сильным, всегда поступать справедливо. Юный рыцарь с бурлящим энтузиазмом принимает любые вызовы, будь то охрана замка, организация праздника или спасение принцессы. Ежедневно он будет выполнять новые миссии и становиться похожим на настоящего рыцаря, конечно, не без помощи своих верных друзей. Вместе с героями мультсериала телезрители перенесутся в волшебный мир Средневековья, богатый сказками и легендами.

    Рыцарь Майк

    Рыцарь Майк / Mike the Knight (2011-2012) SATRip (Серии 1-52 из 52)

    Рыцарь майк скачать через торрент

    Русское название: Рыцарь Майк

    Оригинальное название: Mike the Knight

    Год выпуска: 2011-2012

    Жанр: Мультсериал, приключения, семейный, детский

    Рыцарский мультсериал, который перенесет телезрителей в волшебное Средневековье. Окунитесь в загадочный мир, наполненный древними подвигами, магией, замками и драконами! Юный Майк живет в средневековом королевстве. Сын короля и королевы, он твердо решил стать благородным рыцарем, как и его отец. Выбрав своим девизом фразу «Время быть рыцарем, а рыцарь может всё!», Майк учится быть сильным, всегда поступать справедливо. Юный рыцарь с бурлящим энтузиазмом принимает любые вызовы, будь то охрана замка, организация праздника или спасение принцессы. Ежедневно он будет выполнять новые миссии и становиться похожим на настоящего рыцаря, конечно, не без помощи своих верных друзей.

    Размер кадра: 720 x 400

    Качество видео: SATRip

    Аудиокодек: AC-3, 2ch.

    Битрейт аудио: 192 kb/s

    02. Охота на драконов / The hunt for dragons

    03. Рыцарский торт / Knight's cake

    04. Мастерство наездника / Rider skill

    05. Награда за добро / The reward for good

    06. Начинающий следопыт / Beginner ranger

    07. Сокровище Троллей / Treasure Trolls

    08. Рыцарский турнир / Tournament Knight

    09. Подготовка к празднику / Preparing for the holiday

    10. Тролли в беде / Trolls in trouble

    11. Вечер Страшилок / Evening scare

    12. Знакомство с викингами / Familiarity with the Vikings

    13. Тишина для королевы / Silence for the Queen

    14. Новости королевства / News of the kingdom

    15. Угощение для викинга / Treats for Viking

    16. Особый сигнал / Special Signal

    17. Монстр под мостом / The monster under the bridge

    18. Верные оруженосцы / Faithful armour-bearers

    19. Рыцарские прятки / Chivalry hide

    20. Почётный гость / Honoured guest

    21. Дорога домой / Road home

    22. Важное поручение / Important commission

    23. Приключение для дракона / Adventure for a dragon

    24. Королевский портрет / Royal portrait

    25. Зимняя прогулка / Winter walk

    26. Рождественская история / A Christmas Carol

    27. День большого обмена / Day of large exchange

    28. Приз для рыцаря / Prize for a knight

    29. Большой парад / Large parade

    30. Конкурс талантов / Competition of talents

    31. Ночь в лесу / Night in-field

    32. Животное для рыцаря / Zoon for a knight

    33. Секрет успешного спасения / Secret of successful rescue

    34. Истинная храбрость / Veritable bravery

    35. Секретный ингредиент / Secret ingredient

    36. Сокровище для волшебницы / Treasure for an enchantress

    37. Самый лучший рыцарь / The best knight

    38. Новый замок / New lock

    39. Конь в горошек / Horse in a pea

    40. Игры на снегу / Games on to snow

    41. Увлекательная история / Enthralling history

    42. Медаль за храбрость / Medal for bravery

    43. Полезный рыцарь / Useful knight

    44. Кукольное представление / Doll presentation

    45. Пикник на пляже / Picnic on a beach

    46. Волшебный горшок / Magic pot

    47. Пирог с рубином / Cake with ruby

    48. Медвежья услуга / Bear favour

    49. Великий защитник / The great defender

    50. Простуженный олень / A cold deer

    51. Летающие собаки / Flying dog

    52. Очень важный гость / A very important guest

    Иви — сестренка Майка, начинающая колдунья; любит соперничать и всегда готова помочь. Она делает много магических ошибок, но всегда учится благодаря им.

    Спарки — крупный огнедышащий дракон, неспешный и ленивый.

    Сквирт — маленький дракончик, который не умеет дышать огнем. У Сквирта небольшой рост, но очень большое воображение.

    Фернандо — персонаж-рассказчик. Он немного младше Майка, играет на лютне и поет забавные песенки о приключениях маленького рыцаря.

    Королева Марта — мама Майка и Иви. Умная и добрая женщина, которая умудряется одновременно править государством и воспитывать двоих детей.

    Полное имя : D:\Rycar.Majk.(01.serija).Ulybajuweesja.sokroviwe.2012.XviD.SATRip.avi

    Формат/Информация : Audio Video Interleave

    Размер файла : 163 Мбайт

    Продолжительность : 11 м.

    Общий поток : 1902 Кбит/сек

    Режиссёр : Rip by Thunder

    Программа кодирования : VirtualDubMod 1.5.10.3 | www.virtualdub-fr.org || (build 2550/release)

    Формат : MPEG-4 Visual

    Профиль формата : Advanced Simple@L5

    Параметр BVOP формата : 2

    Параметр QPel формата : Нет

    Параметр GMC формата : Без точки перехода

    Параметр матрицы формата : Default (H.263)

    Идентификатор кодека : XVID

    Идентификатор кодека/Подсказка : XviD

    Продолжительность : 11 м.

    Битрейт : 1700 Кбит/сек

    Ширина : 720 пикселей

    Высота : 400 пикселей

    Соотношение сторон : 16:9

    Частота кадров : 25,000 кадров/сек

    Цветовое пространство : YUV

    Субдискретизация насыщенности : 4:2:0

    Битовая глубина : 8 бит

    Тип развёртки : Прогрессивная

    Метод сжатия : С потерями

    Размер потока : 146 Мбайт (89%)

    Библиотека кодирования : XviD 1.2.1 (UTC 2008-12-04)

    Формат/Информация : Audio Coding 3

    Расширение режима : CM (complete main)

    Идентификатор кодека : 2000

    Продолжительность : 11 м.

    Вид битрейта : Постоянный

    Битрейт : 192 Кбит/сек

    Каналы : 2 канала

    Расположение каналов : Front: L R

    Частота : 48,0 КГц

    Битовая глубина : 16 бит

    Метод сжатия : С потерями

    Размер потока : 16,5 Мбайт (10%)

    Выравнивание : Разделение по промежуткам

    Продолжительность промежутка : 40 мс. (1,00 видеокадр)

    Время предзагрузки промежутка : 500 мс.

    Полное имя : D:\Rycar.Majk.(02.serija).Ohota.na.drakonov.2012.XviD.SATRip.avi

    Формат/Информация : Audio Video Interleave

    Размер файла : 163 Мбайт

    Продолжительность : 11 м.

    Общий поток : 1902 Кбит/сек

    Режиссёр : Rip by Thunder

    Программа кодирования : VirtualDubMod 1.5.10.3 | www.virtualdub-fr.org || (build 2550/release)

    Формат : MPEG-4 Visual

    Профиль формата : Advanced Simple@L5

    Параметр BVOP формата : 2

    Параметр QPel формата : Нет

    Параметр GMC формата : Без точки перехода

    Параметр матрицы формата : Default (H.263)

    Идентификатор кодека : XVID

    Идентификатор кодека/Подсказка : XviD

    Продолжительность : 11 м.

    Битрейт : 1700 Кбит/сек

    Ширина : 720 пикселей

    Высота : 400 пикселей

    Соотношение сторон : 16:9

    Частота кадров : 25,000 кадров/сек

    Цветовое пространство : YUV

    Субдискретизация насыщенности : 4:2:0

    Битовая глубина : 8 бит

    Тип развёртки : Прогрессивная

    Метод сжатия : С потерями

    Размер потока : 146 Мбайт (89%)

    Библиотека кодирования : XviD 1.2.1 (UTC 2008-12-04)

    Формат/Информация : Audio Coding 3

    Расширение режима : CM (complete main)

    Идентификатор кодека : 2000

    Продолжительность : 11 м.

    Вид битрейта : Постоянный

    Битрейт : 192 Кбит/сек

    Каналы : 2 канала

    Расположение каналов : Front: L R

    Частота : 48,0 КГц

    Битовая глубина : 16 бит

    Метод сжатия : С потерями

    Размер потока : 16,5 Мбайт (10%)

    Выравнивание : Разделение по промежуткам

    Продолжительность промежутка : 40 мс. (1,00 видеокадр)

    Время предзагрузки промежутка : 500 мс.

    Полное имя : D:\Rycar.Majk.(03.serija).Rycarskij.tort.2012.XviD.SATRip.avi

    Формат/Информация : Audio Video Interleave

    Размер файла : 163 Мбайт

    Продолжительность : 11 м.

    Общий поток : 1902 Кбит/сек

    Режиссёр : Rip by Thunder

    Программа кодирования : VirtualDubMod 1.5.10.3 | www.virtualdub-fr.org || (build 2550/release)

    Формат : MPEG-4 Visual

    Профиль формата : Advanced Simple@L5

    Параметр BVOP формата : 2

    Параметр QPel формата : Нет

    Параметр GMC формата : Без точки перехода

    Параметр матрицы формата : Default (H.263)

    Идентификатор кодека : XVID

    Идентификатор кодека/Подсказка : XviD

    Продолжительность : 11 м.

    Битрейт : 1700 Кбит/сек

    Ширина : 720 пикселей

    Высота : 400 пикселей

    Соотношение сторон : 16:9

    Частота кадров : 25,000 кадров/сек

    Цветовое пространство : YUV

    Субдискретизация насыщенности : 4:2:0

    Битовая глубина : 8 бит

    Тип развёртки : Прогрессивная

    Метод сжатия : С потерями

    Размер потока : 146 Мбайт (89%)

    Библиотека кодирования : XviD 1.2.1 (UTC 2008-12-04)

    Формат/Информация : Audio Coding 3

    Расширение режима : CM (complete main)

    Идентификатор кодека : 2000

    Продолжительность : 11 м.

    Вид битрейта : Постоянный

    Битрейт : 192 Кбит/сек

    Каналы : 2 канала

    Расположение каналов : Front: L R

    Частота : 48,0 КГц

    Битовая глубина : 16 бит

    Метод сжатия : С потерями

    Размер потока : 16,5 Мбайт (10%)

    Выравнивание : Разделение по промежуткам

    Продолжительность промежутка : 40 мс. (1,00 видеокадр)

    Время предзагрузки промежутка : 500 мс.

    Полное имя : D:\Rycar.Majk.(04.serija).Masterstvo.naezdnika.2012.XviD.SATRip.avi

    Формат/Информация : Audio Video Interleave

    Размер файла : 163 Мбайт

    Продолжительность : 11 м.

    Общий поток : 1902 Кбит/сек

    Режиссёр : Rip by Thunder

    Программа кодирования : VirtualDubMod 1.5.10.3 | www.virtualdub-fr.org || (build 2550/release)

    Формат : MPEG-4 Visual

    Профиль формата : Advanced Simple@L5

    Параметр BVOP формата : 2

    Параметр QPel формата : Нет

    Параметр GMC формата : Без точки перехода

    Параметр матрицы формата : Default (H.263)

    Идентификатор кодека : XVID

    Идентификатор кодека/Подсказка : XviD

    Продолжительность : 11 м.

    Битрейт : 1700 Кбит/сек

    Ширина : 720 пикселей

    Высота : 400 пикселей

    Соотношение сторон : 16:9

    Частота кадров : 25,000 кадров/сек

    Цветовое пространство : YUV

    Субдискретизация насыщенности : 4:2:0

    Битовая глубина : 8 бит

    Тип развёртки : Прогрессивная

    Метод сжатия : С потерями

    Размер потока : 146 Мбайт (89%)

    Библиотека кодирования : XviD 1.2.1 (UTC 2008-12-04)

    Формат/Информация : Audio Coding 3

    Расширение режима : CM (complete main)

    Идентификатор кодека : 2000

    Продолжительность : 11 м.

    Вид битрейта : Постоянный

    Битрейт : 192 Кбит/сек

    Каналы : 2 канала

    Расположение каналов : Front: L R

    Частота : 48,0 КГц

    Битовая глубина : 16 бит

    Метод сжатия : С потерями

    Размер потока : 16,5 Мбайт (10%)

    Выравнивание : Разделение по промежуткам

    Продолжительность промежутка : 40 мс. (1,00 видеокадр)

    Время предзагрузки промежутка : 500 мс.

    Полное имя : D:\Rycar.Majk.(05.serija).Nagrada.za.dobro.2012.XviD.SATRip.avi

    Формат/Информация : Audio Video Interleave

    Размер файла : 163 Мбайт

    Продолжительность : 11 м.

    Общий поток : 1902 Кбит/сек

    Режиссёр : Rip by Thunder

    Программа кодирования : VirtualDubMod 1.5.10.3 | www.virtualdub-fr.org || (build 2550/release)

    Формат : MPEG-4 Visual

    Профиль формата : Advanced Simple@L5

    Параметр BVOP формата : 2

    Параметр QPel формата : Нет

    Параметр GMC формата : Без точки перехода

    Параметр матрицы формата : Default (H.263)

    Идентификатор кодека : XVID

    Идентификатор кодека/Подсказка : XviD

    Продолжительность : 11 м.

    Битрейт : 1700 Кбит/сек

    Ширина : 720 пикселей

    Высота : 400 пикселей

    Соотношение сторон : 16:9

    Частота кадров : 25,000 кадров/сек

    Цветовое пространство : YUV

    Субдискретизация насыщенности : 4:2:0

    Битовая глубина : 8 бит

    Тип развёртки : Прогрессивная

    Метод сжатия : С потерями

    Размер потока : 146 Мбайт (89%)

    Библиотека кодирования : XviD 1.2.1 (UTC 2008-12-04)

    Формат/Информация : Audio Coding 3

    Расширение режима : CM (complete main)

    Идентификатор кодека : 2000

    Продолжительность : 11 м.

    Вид битрейта : Постоянный

    Битрейт : 192 Кбит/сек

    Каналы : 2 канала

    Расположение каналов : Front: L R

    Частота : 48,0 КГц

    Битовая глубина : 16 бит

    Метод сжатия : С потерями

    Размер потока : 16,5 Мбайт (10%)

    Выравнивание : Разделение по промежуткам

    Продолжительность промежутка : 40 мс. (1,00 видеокадр)

    Время предзагрузки промежутка : 500 мс.

    Полное имя : D:\Rycar.Majk.(06.serija).Nachinajushhij.sledopyt.2012.XviD.SATRip.avi

    Формат/Информация : Audio Video Interleave

    Размер файла : 162 Мбайт

    Продолжительность : 11 м.

    Общий поток : 1893 Кбит/сек

    Режиссёр : Rip by Thunder

    Программа кодирования : VirtualDubMod 1.5.10.3 | www.virtualdub-fr.org || (build 2550/release)

    Формат : MPEG-4 Visual

    Профиль формата : Advanced Simple@L5

    Параметр BVOP формата : 2

    Параметр QPel формата : Нет

    Параметр GMC формата : Без точки перехода

    Параметр матрицы формата : Default (H.263)

    Идентификатор кодека : XVID

    Идентификатор кодека/Подсказка : XviD

    Продолжительность : 11 м.

    Битрейт : 1692 Кбит/сек

    Ширина : 720 пикселей

    Высота : 400 пикселей

    Соотношение сторон : 16:9

    Частота кадров : 25,000 кадров/сек

    Цветовое пространство : YUV

    Субдискретизация насыщенности : 4:2:0

    Битовая глубина : 8 бит

    Тип развёртки : Прогрессивная

    Метод сжатия : С потерями

    Размер потока : 145 Мбайт (89%)

    Библиотека кодирования : XviD 1.2.1 (UTC 2008-12-04)

    Формат/Информация : Audio Coding 3

    Расширение режима : CM (complete main)

    Идентификатор кодека : 2000

    Продолжительность : 11 м.

    Вид битрейта : Постоянный

    Битрейт : 192 Кбит/сек

    Каналы : 2 канала

    Расположение каналов : Front: L R

    Частота : 48,0 КГц

    Битовая глубина : 16 бит

    Метод сжатия : С потерями

    Размер потока : 16,5 Мбайт (10%)

    Выравнивание : Разделение по промежуткам

    Продолжительность промежутка : 40 мс. (1,00 видеокадр)

    Время предзагрузки промежутка : 500 мс.

    Полное имя : D:\Rycar.Majk.(07.serija).Sokrovishhe.Trollej.2012.XviD.SATRip.avi

    Формат/Информация : Audio Video Interleave

    Размер файла : 163 Мбайт

    Продолжительность : 11 м.

    Общий поток : 1900 Кбит/сек

    Режиссёр : Rip by Thunder

    Программа кодирования : VirtualDubMod 1.5.10.3 | www.virtualdub-fr.org || (build 2550/release)

    Формат : MPEG-4 Visual

    Профиль формата : Advanced Simple@L5

    Параметр BVOP формата : 2

    Параметр QPel формата : Нет

    Параметр GMC формата : Без точки перехода

    Параметр матрицы формата : Default (H.263)

    Идентификатор кодека : XVID

    Идентификатор кодека/Подсказка : XviD

    Продолжительность : 11 м.

    Битрейт : 1698 Кбит/сек

    Ширина : 720 пикселей

    Высота : 400 пикселей

    Соотношение сторон : 16:9

    Частота кадров : 25,000 кадров/сек

    Цветовое пространство : YUV

    Субдискретизация насыщенности : 4:2:0

    Битовая глубина : 8 бит

    Тип развёртки : Прогрессивная

    Метод сжатия : С потерями

    Размер потока : 146 Мбайт (89%)

    Библиотека кодирования : XviD 1.2.1 (UTC 2008-12-04)

    Формат/Информация : Audio Coding 3

    Расширение режима : CM (complete main)

    Идентификатор кодека : 2000

    Продолжительность : 11 м.

    Вид битрейта : Постоянный

    Битрейт : 192 Кбит/сек

    Каналы : 2 канала

    Расположение каналов : Front: L R

    Частота : 48,0 КГц

    Битовая глубина : 16 бит

    Метод сжатия : С потерями

    Размер потока : 16,5 Мбайт (10%)

    Выравнивание : Разделение по промежуткам

    Продолжительность промежутка : 40 мс. (1,00 видеокадр)

    Время предзагрузки промежутка : 500 мс.

    Полное имя : D:\Rycar.Majk.(08.serija).Rycarskij.turnir.2012.XviD.SATRip.avi

    Формат/Информация : Audio Video Interleave

    Размер файла : 163 Мбайт

    Продолжительность : 11 м.

    Общий поток : 1902 Кбит/сек

    Режиссёр : Rip by Thunder

    Программа кодирования : VirtualDubMod 1.5.10.3 | www.virtualdub-fr.org || (build 2550/release)

    Формат : MPEG-4 Visual

    Профиль формата : Advanced Simple@L5

    Параметр BVOP формата : 2

    Параметр QPel формата : Нет

    Параметр GMC формата : Без точки перехода

    Параметр матрицы формата : Default (H.263)

    Идентификатор кодека : XVID

    Идентификатор кодека/Подсказка : XviD

    Продолжительность : 11 м.

    Битрейт : 1700 Кбит/сек

    Ширина : 720 пикселей

    Высота : 400 пикселей

    Соотношение сторон : 16:9

    Частота кадров : 25,000 кадров/сек

    Цветовое пространство : YUV

    Субдискретизация насыщенности : 4:2:0

    Битовая глубина : 8 бит

    Тип развёртки : Прогрессивная

    Метод сжатия : С потерями

    Размер потока : 146 Мбайт (89%)

    Библиотека кодирования : XviD 1.2.1 (UTC 2008-12-04)

    Формат/Информация : Audio Coding 3

    Расширение режима : CM (complete main)

    Идентификатор кодека : 2000

    Продолжительность : 11 м.

    Вид битрейта : Постоянный

    Битрейт : 192 Кбит/сек

    Каналы : 2 канала

    Расположение каналов : Front: L R

    Частота : 48,0 КГц

    Битовая глубина : 16 бит

    Метод сжатия : С потерями

    Размер потока : 16,5 Мбайт (10%)

    Выравнивание : Разделение по промежуткам

    Продолжительность промежутка : 40 мс. (1,00 видеокадр)

    Время предзагрузки промежутка : 500 мс.

    Полное имя : D:\Rycar.Majk.(09.serija).Podgotovka.k.prazdniku.2012.XviD.SATRip.avi

    Формат/Информация : Audio Video Interleave

    Размер файла : 163 Мбайт

    Продолжительность : 11 м.

    Общий поток : 1894 Кбит/сек

    Режиссёр : Rip by Thunder

    Программа кодирования : VirtualDubMod 1.5.10.3 | www.virtualdub-fr.org || (build 2550/release)

    Формат : MPEG-4 Visual

    Профиль формата : Advanced Simple@L5

    Параметр BVOP формата : 2

    Параметр QPel формата : Нет

    Параметр GMC формата : Без точки перехода

    Параметр матрицы формата : Default (H.263)

    Идентификатор кодека : XVID

    Идентификатор кодека/Подсказка : XviD

    Продолжительность : 11 м.

    Битрейт : 1692 Кбит/сек

    Ширина : 720 пикселей

    Высота : 400 пикселей

    Соотношение сторон : 16:9

    Частота кадров : 25,000 кадров/сек

    Цветовое пространство : YUV

    Субдискретизация насыщенности : 4:2:0

    Битовая глубина : 8 бит

    Тип развёртки : Прогрессивная

    Метод сжатия : С потерями

    Размер потока : 145 Мбайт (89%)

    Библиотека кодирования : XviD 1.2.1 (UTC 2008-12-04)

    Формат/Информация : Audio Coding 3

    Расширение режима : CM (complete main)

    Идентификатор кодека : 2000

    Продолжительность : 11 м.

    Вид битрейта : Постоянный

    Битрейт : 192 Кбит/сек

    Каналы : 2 канала

    Расположение каналов : Front: L R

    Частота : 48,0 КГц

    Битовая глубина : 16 бит

    Метод сжатия : С потерями

    Размер потока : 16,5 Мбайт (10%)

    Выравнивание : Разделение по промежуткам

    Продолжительность промежутка : 40 мс. (1,00 видеокадр)

    Время предзагрузки промежутка : 500 мс.

    Полное имя : D:\Rycar.Majk.(10.serija).Trolli.v.bede.2012.XviD.SATRip.avi

    Формат/Информация : Audio Video Interleave

    Размер файла : 163 Мбайт

    Продолжительность : 11 м.

    Общий поток : 1901 Кбит/сек

    Режиссёр : Rip by Thunder

    Программа кодирования : VirtualDubMod 1.5.10.3 | www.virtualdub-fr.org || (build 2550/release)

    Формат : MPEG-4 Visual

    Профиль формата : Advanced Simple@L5

    Параметр BVOP формата : 2

    Параметр QPel формата : Нет

    Параметр GMC формата : Без точки перехода

    Параметр матрицы формата : Default (H.263)

    Идентификатор кодека : XVID

    Идентификатор кодека/Подсказка : XviD

    Продолжительность : 11 м.

    Битрейт : 1700 Кбит/сек

    Ширина : 720 пикселей

    Высота : 400 пикселей

    Соотношение сторон : 16:9

    Частота кадров : 25,000 кадров/сек

    Цветовое пространство : YUV

    Субдискретизация насыщенности : 4:2:0

    Битовая глубина : 8 бит

    Тип развёртки : Прогрессивная

    Метод сжатия : С потерями

    Размер потока : 146 Мбайт (89%)

    Библиотека кодирования : XviD 1.2.1 (UTC 2008-12-04)

    Формат/Информация : Audio Coding 3

    Расширение режима : CM (complete main)

    Идентификатор кодека : 2000

    Продолжительность : 11 м.

    Вид битрейта : Постоянный

    Битрейт : 192 Кбит/сек

    Каналы : 2 канала

    Расположение каналов : Front: L R

    Частота : 48,0 КГц

    Битовая глубина : 16 бит

    Метод сжатия : С потерями

    Размер потока : 16,5 Мбайт (10%)

    Выравнивание : Разделение по промежуткам

    Продолжительность промежутка : 40 мс. (1,00 видеокадр)

    Время предзагрузки промежутка : 500 мс.

    Полное имя : D:\Rycar.Majk.(11.serija).Vecher.Strashilok.2012.XviD.SATRip.avi

    Формат/Информация : Audio Video Interleave

    Размер файла : 163 Мбайт

    Продолжительность : 11 м.

    Общий поток : 1902 Кбит/сек

    Режиссёр : Rip by Thunder

    Программа кодирования : VirtualDubMod 1.5.10.3 | www.virtualdub-fr.org || (build 2550/release)

    Формат : MPEG-4 Visual

    Профиль формата : Advanced Simple@L5

    Параметр BVOP формата : 2

    Параметр QPel формата : Нет

    Параметр GMC формата : Без точки перехода

    Параметр матрицы формата : Default (H.263)

    Идентификатор кодека : XVID

    Идентификатор кодека/Подсказка : XviD

    Продолжительность : 11 м.

    Битрейт : 1700 Кбит/сек

    Ширина : 720 пикселей

    Высота : 400 пикселей

    Соотношение сторон : 16:9

    Частота кадров : 25,000 кадров/сек

    Цветовое пространство : YUV

    Субдискретизация насыщенности : 4:2:0

    Битовая глубина : 8 бит

    Тип развёртки : Прогрессивная

    Метод сжатия : С потерями

    Размер потока : 146 Мбайт (89%)

    Библиотека кодирования : XviD 1.2.1 (UTC 2008-12-04)

    Формат/Информация : Audio Coding 3

    Расширение режима : CM (complete main)

    Идентификатор кодека : 2000

    Продолжительность : 11 м.

    Вид битрейта : Постоянный

    Битрейт : 192 Кбит/сек

    Каналы : 2 канала

    Расположение каналов : Front: L R

    Частота : 48,0 КГц

    Битовая глубина : 16 бит

    Метод сжатия : С потерями

    Размер потока : 16,5 Мбайт (10%)

    Выравнивание : Разделение по промежуткам

    Продолжительность промежутка : 40 мс. (1,00 видеокадр)

    Время предзагрузки промежутка : 500 мс.

    Полное имя : D:\Rycar.Majk.(12.serija).Znakomstvo.s.vikingami.2012.XviD.SATRip.avi

    Формат/Информация : Audio Video Interleave

    Размер файла : 163 Мбайт

    Продолжительность : 11 м.

    Общий поток : 1902 Кбит/сек

    Режиссёр : Rip by Thunder

    Программа кодирования : VirtualDubMod 1.5.10.3 | www.virtualdub-fr.org || (build 2550/release)

    Формат : MPEG-4 Visual

    Профиль формата : Advanced Simple@L5

    Параметр BVOP формата : 2

    Параметр QPel формата : Нет

    Параметр GMC формата : Без точки перехода

    Параметр матрицы формата : Default (H.263)

    Идентификатор кодека : XVID

    Идентификатор кодека/Подсказка : XviD

    Продолжительность : 11 м.

    Битрейт : 1700 Кбит/сек

    Ширина : 720 пикселей

    Высота : 400 пикселей

    Соотношение сторон : 16:9

    Частота кадров : 25,000 кадров/сек

    Цветовое пространство : YUV

    Субдискретизация насыщенности : 4:2:0

    Битовая глубина : 8 бит

    Тип развёртки : Прогрессивная

    Метод сжатия : С потерями

    Размер потока : 146 Мбайт (89%)

    Библиотека кодирования : XviD 1.2.1 (UTC 2008-12-04)

    Формат/Информация : Audio Coding 3

    Расширение режима : CM (complete main)

    Идентификатор кодека : 2000

    Продолжительность : 11 м.

    Вид битрейта : Постоянный

    Битрейт : 192 Кбит/сек

    Каналы : 2 канала

    Расположение каналов : Front: L R

    Частота : 48,0 КГц

    Битовая глубина : 16 бит

    Метод сжатия : С потерями

    Размер потока : 16,5 Мбайт (10%)

    Выравнивание : Разделение по промежуткам

    Продолжительность промежутка : 40 мс. (1,00 видеокадр)

    Время предзагрузки промежутка : 500 мс.

    Полное имя : D:\Rycar.Majk.(13.serija).Tishina.dlja.korolevy.2012.XviD.SATRip.avi

    Формат/Информация : Audio Video Interleave

    Размер файла : 163 Мбайт

    Продолжительность : 11 м.

    Общий поток : 1902 Кбит/сек

    Режиссёр : Rip by Thunder

    Программа кодирования : VirtualDubMod 1.5.10.3 | www.virtualdub-fr.org || (build 2550/release)

    Формат : MPEG-4 Visual

    Профиль формата : Advanced Simple@L5

    Параметр BVOP формата : 2

    Параметр QPel формата : Нет

    Параметр GMC формата : Без точки перехода

    Параметр матрицы формата : Default (H.263)

    Идентификатор кодека : XVID

    Идентификатор кодека/Подсказка : XviD

    Продолжительность : 11 м.

    Битрейт : 1700 Кбит/сек

    Ширина : 720 пикселей

    Высота : 400 пикселей

    Соотношение сторон : 16:9

    Частота кадров : 25,000 кадров/сек

    Цветовое пространство : YUV

    Субдискретизация насыщенности : 4:2:0

    Битовая глубина : 8 бит

    Тип развёртки : Прогрессивная

    Метод сжатия : С потерями

    Размер потока : 146 Мбайт (89%)

    Библиотека кодирования : XviD 1.2.1 (UTC 2008-12-04)

    Формат/Информация : Audio Coding 3

    Расширение режима : CM (complete main)

    Идентификатор кодека : 2000

    Продолжительность : 11 м.

    Вид битрейта : Постоянный

    Битрейт : 192 Кбит/сек

    Каналы : 2 канала

    Расположение каналов : Front: L R

    Частота : 48,0 КГц

    Битовая глубина : 16 бит

    Метод сжатия : С потерями

    Размер потока : 16,5 Мбайт (10%)

    Выравнивание : Разделение по промежуткам

    Продолжительность промежутка : 40 мс. (1,00 видеокадр)

    Время предзагрузки промежутка : 500 мс.

    Полное имя : D:\Rycar.Majk.(14.serija).Novosti.korolevstva.2012.XviD.SATRip.avi

    Формат/Информация : Audio Video Interleave

    Размер файла : 163 Мбайт

    Продолжительность : 11 м.

    Общий поток : 1902 Кбит/сек

    Режиссёр : Rip by Thunder

    Программа кодирования : VirtualDubMod 1.5.10.3 | www.virtualdub-fr.org || (build 2550/release)

    Формат : MPEG-4 Visual

    Профиль формата : Advanced Simple@L5

    Параметр BVOP формата : 2

    Параметр QPel формата : Нет

    Параметр GMC формата : Без точки перехода

    Параметр матрицы формата : Default (H.263)

    Идентификатор кодека : XVID

    Идентификатор кодека/Подсказка : XviD

    Продолжительность : 11 м.

    Битрейт : 1700 Кбит/сек

    Ширина : 720 пикселей

    Высота : 400 пикселей

    Соотношение сторон : 16:9

    Частота кадров : 25,000 кадров/сек

    Цветовое пространство : YUV

    Субдискретизация насыщенности : 4:2:0

    Битовая глубина : 8 бит

    Тип развёртки : Прогрессивная

    Метод сжатия : С потерями

    Размер потока : 146 Мбайт (89%)

    Библиотека кодирования : XviD 1.2.1 (UTC 2008-12-04)

    Формат/Информация : Audio Coding 3

    Расширение режима : CM (complete main)

    Идентификатор кодека : 2000

    Продолжительность : 11 м.

    Вид битрейта : Постоянный

    Битрейт : 192 Кбит/сек

    Каналы : 2 канала

    Расположение каналов : Front: L R

    Частота : 48,0 КГц

    Битовая глубина : 16 бит

    Метод сжатия : С потерями

    Размер потока : 16,5 Мбайт (10%)

    Выравнивание : Разделение по промежуткам

    Продолжительность промежутка : 40 мс. (1,00 видеокадр)

    Время предзагрузки промежутка : 500 мс.

    Полное имя : D:\Rycar.Majk.(15.serija).Ugoshhenie.dlja.vikinga.2012.XviD.SATRip.avi

    Формат/Информация : Audio Video Interleave

    Размер файла : 163 Мбайт

    Продолжительность : 11 м.

    Общий поток : 1902 Кбит/сек

    Режиссёр : Rip by Thunder

    Программа кодирования : VirtualDubMod 1.5.10.3 | www.virtualdub-fr.org || (build 2550/release)

    Формат : MPEG-4 Visual

    Профиль формата : Advanced Simple@L5

    Параметр BVOP формата : 2

    Параметр QPel формата : Нет

    Параметр GMC формата : Без точки перехода

    Параметр матрицы формата : Default (H.263)

    Идентификатор кодека : XVID

    Идентификатор кодека/Подсказка : XviD

    Продолжительность : 11 м.

    Битрейт : 1700 Кбит/сек

    Ширина : 720 пикселей

    Высота : 400 пикселей

    Соотношение сторон : 16:9

    Частота кадров : 25,000 кадров/сек

    Цветовое пространство : YUV

    Субдискретизация насыщенности : 4:2:0

    Битовая глубина : 8 бит

    Тип развёртки : Прогрессивная

    Метод сжатия : С потерями

    Размер потока : 146 Мбайт (89%)

    Библиотека кодирования : XviD 1.2.1 (UTC 2008-12-04)

    Формат/Информация : Audio Coding 3

    Расширение режима : CM (complete main)

    Идентификатор кодека : 2000

    Продолжительность : 11 м.

    Вид битрейта : Постоянный

    Битрейт : 192 Кбит/сек

    Каналы : 2 канала

    Расположение каналов : Front: L R

    Частота : 48,0 КГц

    Битовая глубина : 16 бит

    Метод сжатия : С потерями

    Размер потока : 16,5 Мбайт (10%)

    Выравнивание : Разделение по промежуткам

    Продолжительность промежутка : 40 мс. (1,00 видеокадр)

    Время предзагрузки промежутка : 500 мс.

    Полное имя : D:\Rycar.Majk.(16.serija).Osobyj.signal.2012.XviD.SATRip.avi

    Формат/Информация : Audio Video Interleave

    Размер файла : 163 Мбайт

    Продолжительность : 11 м.

    Общий поток : 1902 Кбит/сек

    Режиссёр : Rip by Thunder

    Программа кодирования : VirtualDubMod 1.5.10.3 | www.virtualdub-fr.org || (build 2550/release)

    Формат : MPEG-4 Visual

    Профиль формата : Advanced Simple@L5

    Параметр BVOP формата : 2

    Параметр QPel формата : Нет

    Параметр GMC формата : Без точки перехода

    Параметр матрицы формата : Default (H.263)

    Идентификатор кодека : XVID

    Идентификатор кодека/Подсказка : XviD

    Продолжительность : 11 м.

    Битрейт : 1700 Кбит/сек

    Ширина : 720 пикселей

    Высота : 400 пикселей

    Соотношение сторон : 16:9

    Частота кадров : 25,000 кадров/сек

    Цветовое пространство : YUV

    Субдискретизация насыщенности : 4:2:0

    Битовая глубина : 8 бит

    Тип развёртки : Прогрессивная

    Метод сжатия : С потерями

    Размер потока : 146 Мбайт (89%)

    Библиотека кодирования : XviD 1.2.1 (UTC 2008-12-04)

    Формат/Информация : Audio Coding 3

    Расширение режима : CM (complete main)

    Идентификатор кодека : 2000

    Продолжительность : 11 м.

    Вид битрейта : Постоянный

    Битрейт : 192 Кбит/сек

    Каналы : 2 канала

    Расположение каналов : Front: L R

    Частота : 48,0 КГц

    Битовая глубина : 16 бит

    Метод сжатия : С потерями

    Размер потока : 16,5 Мбайт (10%)

    Выравнивание : Разделение по промежуткам

    Продолжительность промежутка : 40 мс. (1,00 видеокадр)

    Время предзагрузки промежутка : 500 мс.

    Полное имя : D:\Rycar.Majk.(17.serija).Monstr.pod.mostom.2012.XviD.SATRip.avi

    Формат/Информация : Audio Video Interleave

    Размер файла : 163 Мбайт

    Продолжительность : 12 м.

    Общий поток : 1902 Кбит/сек

    Режиссёр : Rip by Thunder

    Программа кодирования : VirtualDubMod 1.5.10.3 | www.virtualdub-fr.org || (build 2550/release)

    Формат : MPEG-4 Visual

    Профиль формата : Advanced Simple@L5

    Параметр BVOP формата : 2

    Параметр QPel формата : Нет

    Параметр GMC формата : Без точки перехода

    Параметр матрицы формата : Default (H.263)

    Идентификатор кодека : XVID

    Идентификатор кодека/Подсказка : XviD

    Продолжительность : 12 м.

    Битрейт : 1700 Кбит/сек

    Ширина : 720 пикселей

    Высота : 400 пикселей

    Соотношение сторон : 16:9

    Частота кадров : 25,000 кадров/сек

    Цветовое пространство : YUV

    Субдискретизация насыщенности : 4:2:0

    Битовая глубина : 8 бит

    Тип развёртки : Прогрессивная

    Метод сжатия : С потерями

    Размер потока : 146 Мбайт (89%)

    Библиотека кодирования : XviD 1.2.1 (UTC 2008-12-04)

    Формат/Информация : Audio Coding 3

    Расширение режима : CM (complete main)

    Идентификатор кодека : 2000

    Продолжительность : 12 м.

    Вид битрейта : Постоянный

    Битрейт : 192 Кбит/сек

    Каналы : 2 канала

    Расположение каналов : Front: L R

    Частота : 48,0 КГц

    Битовая глубина : 16 бит

    Метод сжатия : С потерями

    Размер потока : 16,5 Мбайт (10%)

    Выравнивание : Разделение по промежуткам

    Продолжительность промежутка : 40 мс. (1,00 видеокадр)

    Время предзагрузки промежутка : 500 мс.

    Полное имя : D:\Rycar.Majk.(18.serija).Vernye.oruzhenoscy.2012.XviD.SATRip.avi

    Формат/Информация : Audio Video Interleave

    Размер файла : 163 Мбайт

    Продолжительность : 11 м.

    Общий поток : 1902 Кбит/сек

    Режиссёр : Rip by Thunder

    Программа кодирования : VirtualDubMod 1.5.10.3 | www.virtualdub-fr.org || (build 2550/release)

    Формат : MPEG-4 Visual

    Профиль формата : Advanced Simple@L5

    Параметр BVOP формата : 2

    Параметр QPel формата : Нет

    Параметр GMC формата : Без точки перехода

    Параметр матрицы формата : Default (H.263)

    Идентификатор кодека : XVID

    Идентификатор кодека/Подсказка : XviD

    Продолжительность : 11 м.

    Битрейт : 1700 Кбит/сек

    Ширина : 720 пикселей

    Высота : 400 пикселей

    Соотношение сторон : 16:9

    Частота кадров : 25,000 кадров/сек

    Цветовое пространство : YUV

    Субдискретизация насыщенности : 4:2:0

    Битовая глубина : 8 бит

    Тип развёртки : Прогрессивная

    Метод сжатия : С потерями

    Размер потока : 146 Мбайт (89%)

    Библиотека кодирования : XviD 1.2.1 (UTC 2008-12-04)

    Формат/Информация : Audio Coding 3

    Расширение режима : CM (complete main)

    Идентификатор кодека : 2000

    Продолжительность : 11 м.

    Вид битрейта : Постоянный

    Битрейт : 192 Кбит/сек

    Каналы : 2 канала

    Расположение каналов : Front: L R

    Частота : 48,0 КГц

    Битовая глубина : 16 бит

    Метод сжатия : С потерями

    Размер потока : 16,5 Мбайт (10%)

    Выравнивание : Разделение по промежуткам

    Продолжительность промежутка : 40 мс. (1,00 видеокадр)

    Время предзагрузки промежутка : 500 мс.

    Полное имя : D:\Rycar.Majk.(19.serija).Rycarskie.prjatki.2012.XviD.SATRip.avi

    Формат/Информация : Audio Video Interleave

    Размер файла : 163 Мбайт

    Продолжительность : 11 м.

    Общий поток : 1902 Кбит/сек

    Режиссёр : Rip by Thunder

    Программа кодирования : VirtualDubMod 1.5.10.3 | www.virtualdub-fr.org || (build 2550/release)

    Формат : MPEG-4 Visual

    Профиль формата : Advanced Simple@L5

    Параметр BVOP формата : 2

    Параметр QPel формата : Нет

    Параметр GMC формата : Без точки перехода

    Параметр матрицы формата : Default (H.263)

    Идентификатор кодека : XVID

    Идентификатор кодека/Подсказка : XviD

    Продолжительность : 11 м.

    Битрейт : 1700 Кбит/сек

    Ширина : 720 пикселей

    Высота : 400 пикселей

    Соотношение сторон : 16:9

    Частота кадров : 25,000 кадров/сек

    Цветовое пространство : YUV

    Субдискретизация насыщенности : 4:2:0

    Битовая глубина : 8 бит

    Тип развёртки : Прогрессивная

    Метод сжатия : С потерями

    Размер потока : 146 Мбайт (89%)

    Библиотека кодирования : XviD 1.2.1 (UTC 2008-12-04)

    Формат/Информация : Audio Coding 3

    Расширение режима : CM (complete main)

    Идентификатор кодека : 2000

    Продолжительность : 11 м.

    Вид битрейта : Постоянный

    Битрейт : 192 Кбит/сек

    Каналы : 2 канала

    Расположение каналов : Front: L R

    Частота : 48,0 КГц

    Битовая глубина : 16 бит

    Метод сжатия : С потерями

    Размер потока : 16,5 Мбайт (10%)

    Выравнивание : Разделение по промежуткам

    Продолжительность промежутка : 40 мс. (1,00 видеокадр)

    Время предзагрузки промежутка : 500 мс.

    Полное имя : D:\Rycar.Majk.(20.serija).Pochjotnyj.gost.2012.XviD.SATRip.avi

    Формат/Информация : Audio Video Interleave

    Размер файла : 163 Мбайт

    Продолжительность : 11 м.

    Общий поток : 1902 Кбит/сек

    Режиссёр : Rip by Thunder

    Программа кодирования : VirtualDubMod 1.5.10.3 | www.virtualdub-fr.org || (build 2550/release)

    Формат : MPEG-4 Visual

    Профиль формата : Advanced Simple@L5

    Параметр BVOP формата : 2

    Параметр QPel формата : Нет

    Параметр GMC формата : Без точки перехода

    Параметр матрицы формата : Default (H.263)

    Идентификатор кодека : XVID

    Идентификатор кодека/Подсказка : XviD

    Продолжительность : 11 м.

    Битрейт : 1700 Кбит/сек

    Ширина : 720 пикселей

    Высота : 400 пикселей

    Соотношение сторон : 16:9

    Частота кадров : 25,000 кадров/сек

    Цветовое пространство : YUV

    Субдискретизация насыщенности : 4:2:0

    Битовая глубина : 8 бит

    Тип развёртки : Прогрессивная

    Метод сжатия : С потерями

    Размер потока : 146 Мбайт (89%)

    Библиотека кодирования : XviD 1.2.1 (UTC 2008-12-04)

    Формат/Информация : Audio Coding 3

    Расширение режима : CM (complete main)

    Идентификатор кодека : 2000

    Продолжительность : 11 м.

    Вид битрейта : Постоянный

    Битрейт : 192 Кбит/сек

    Каналы : 2 канала

    Расположение каналов : Front: L R

    Частота : 48,0 КГц

    Битовая глубина : 16 бит

    Метод сжатия : С потерями

    Размер потока : 16,5 Мбайт (10%)

    Выравнивание : Разделение по промежуткам

    Продолжительность промежутка : 40 мс. (1,00 видеокадр)

    Время предзагрузки промежутка : 500 мс.

    Полное имя : D:\Rycar.Majk.(21.serija).Doroga.domoj.2012.XviD.SATRip.avi

    Формат/Информация : Audio Video Interleave

    Размер файла : 163 Мбайт

    Продолжительность : 11 м.

    Общий поток : 1895 Кбит/сек

    Режиссёр : Rip by Thunder

    Программа кодирования : VirtualDubMod 1.5.10.3 | www.virtualdub-fr.org || (build 2550/release)

    Формат : MPEG-4 Visual

    Профиль формата : Advanced Simple@L5

    Параметр BVOP формата : 2

    Параметр QPel формата : Нет

    Параметр GMC формата : Без точки перехода

    Параметр матрицы формата : Default (H.263)

    Идентификатор кодека : XVID

    Идентификатор кодека/Подсказка : XviD

    Продолжительность : 11 м.

    Битрейт : 1693 Кбит/сек

    Ширина : 720 пикселей

    Высота : 400 пикселей

    Соотношение сторон : 16:9

    Частота кадров : 25,000 кадров/сек

    Цветовое пространство : YUV

    Субдискретизация насыщенности : 4:2:0

    Битовая глубина : 8 бит

    Тип развёртки : Прогрессивная

    Метод сжатия : С потерями

    Размер потока : 145 Мбайт (89%)

    Библиотека кодирования : XviD 1.2.1 (UTC 2008-12-04)

    Формат/Информация : Audio Coding 3

    Расширение режима : CM (complete main)

    Идентификатор кодека : 2000

    Продолжительность : 11 м.

    Вид битрейта : Постоянный

    Битрейт : 192 Кбит/сек

    Каналы : 2 канала

    Расположение каналов : Front: L R

    Частота : 48,0 КГц

    Битовая глубина : 16 бит

    Метод сжатия : С потерями

    Размер потока : 16,5 Мбайт (10%)

    Выравнивание : Разделение по промежуткам

    Продолжительность промежутка : 40 мс. (1,00 видеокадр)

    Время предзагрузки промежутка : 500 мс.

    Полное имя : D:\Rycar.Majk.(22.serija).Vazhnoe.poruchenie.2012.XviD.SATRip.avi

    Формат/Информация : Audio Video Interleave

    Размер файла : 163 Мбайт

    Продолжительность : 11 м.

    Общий поток : 1902 Кбит/сек

    Режиссёр : Rip by Thunder

    Программа кодирования : VirtualDubMod 1.5.10.3 | www.virtualdub-fr.org || (build 2550/release)

    Формат : MPEG-4 Visual

    Профиль формата : Advanced Simple@L5

    Параметр BVOP формата : 2

    Параметр QPel формата : Нет

    Параметр GMC формата : Без точки перехода

    Параметр матрицы формата : Default (H.263)

    Идентификатор кодека : XVID

    Идентификатор кодека/Подсказка : XviD

    Продолжительность : 11 м.

    Битрейт : 1700 Кбит/сек

    Ширина : 720 пикселей

    Высота : 400 пикселей

    Соотношение сторон : 16:9

    Частота кадров : 25,000 кадров/сек

    Цветовое пространство : YUV

    Субдискретизация насыщенности : 4:2:0

    Битовая глубина : 8 бит

    Тип развёртки : Прогрессивная

    Метод сжатия : С потерями

    Размер потока : 146 Мбайт (89%)

    Библиотека кодирования : XviD 1.2.1 (UTC 2008-12-04)

    Формат/Информация : Audio Coding 3

    Расширение режима : CM (complete main)

    Идентификатор кодека : 2000

    Продолжительность : 11 м.

    Вид битрейта : Постоянный

    Битрейт : 192 Кбит/сек

    Каналы : 2 канала

    Расположение каналов : Front: L R

    Частота : 48,0 КГц

    Битовая глубина : 16 бит

    Метод сжатия : С потерями

    Размер потока : 16,5 Мбайт (10%)

    Выравнивание : Разделение по промежуткам

    Продолжительность промежутка : 40 мс. (1,00 видеокадр)

    Время предзагрузки промежутка : 500 мс.

    Полное имя : D:\Rycar.Majk.(23.serija).Prikljuchenie.dlja.drakona.2012.XviD.SATRip.avi

    Формат/Информация : Audio Video Interleave

    Размер файла : 163 Мбайт

    Продолжительность : 11 м.

    Общий поток : 1902 Кбит/сек

    Режиссёр : Rip by Thunder

    Программа кодирования : VirtualDubMod 1.5.10.3 | www.virtualdub-fr.org || (build 2550/release)

    Формат : MPEG-4 Visual

    Профиль формата : Advanced Simple@L5

    Параметр BVOP формата : 2

    Параметр QPel формата : Нет

    Параметр GMC формата : Без точки перехода

    Параметр матрицы формата : Default (H.263)

    Идентификатор кодека : XVID

    Идентификатор кодека/Подсказка : XviD

    Продолжительность : 11 м.

    Битрейт : 1700 Кбит/сек

    Ширина : 720 пикселей

    Высота : 400 пикселей

    Соотношение сторон : 16:9

    Частота кадров : 25,000 кадров/сек

    Цветовое пространство : YUV

    Субдискретизация насыщенности : 4:2:0

    Битовая глубина : 8 бит

    Тип развёртки : Прогрессивная

    Метод сжатия : С потерями

    Размер потока : 146 Мбайт (89%)

    Библиотека кодирования : XviD 1.2.1 (UTC 2008-12-04)

    Формат/Информация : Audio Coding 3

    Расширение режима : CM (complete main)

    Идентификатор кодека : 2000

    Продолжительность : 11 м.

    Вид битрейта : Постоянный

    Битрейт : 192 Кбит/сек

    Каналы : 2 канала

    Расположение каналов : Front: L R

    Частота : 48,0 КГц

    Битовая глубина : 16 бит

    Метод сжатия : С потерями

    Размер потока : 16,5 Мбайт (10%)

    Выравнивание : Разделение по промежуткам

    Продолжительность промежутка : 40 мс. (1,00 видеокадр)

    Время предзагрузки промежутка : 500 мс.

    Полное имя : D:\Rycar.Majk.(24.serija).Korolevskij.portret.2012.XviD.SATRip.avi

    Формат/Информация : Audio Video Interleave

    Размер файла : 163 Мбайт

    Продолжительность : 11 м.

    Общий поток : 1902 Кбит/сек

    Режиссёр : Rip by Thunder

    Программа кодирования : VirtualDubMod 1.5.10.3 | www.virtualdub-fr.org || (build 2550/release)

    Формат : MPEG-4 Visual

    Профиль формата : Advanced Simple@L5

    Параметр BVOP формата : 2

    Параметр QPel формата : Нет

    Параметр GMC формата : Без точки перехода

    Параметр матрицы формата : Default (H.263)

    Идентификатор кодека : XVID

    Идентификатор кодека/Подсказка : XviD

    Продолжительность : 11 м.

    Битрейт : 1700 Кбит/сек

    Ширина : 720 пикселей

    Высота : 400 пикселей

    Соотношение сторон : 16:9

    Частота кадров : 25,000 кадров/сек

    Цветовое пространство : YUV

    Субдискретизация насыщенности : 4:2:0

    Битовая глубина : 8 бит

    Тип развёртки : Прогрессивная

    Метод сжатия : С потерями

    Размер потока : 146 Мбайт (89%)

    Библиотека кодирования : XviD 1.2.1 (UTC 2008-12-04)

    Формат/Информация : Audio Coding 3

    Расширение режима : CM (complete main)

    Идентификатор кодека : 2000

    Продолжительность : 11 м.

    Вид битрейта : Постоянный

    Битрейт : 192 Кбит/сек

    Каналы : 2 канала

    Расположение каналов : Front: L R

    Частота : 48,0 КГц

    Битовая глубина : 16 бит

    Метод сжатия : С потерями

    Размер потока : 16,5 Мбайт (10%)

    Выравнивание : Разделение по промежуткам

    Продолжительность промежутка : 40 мс. (1,00 видеокадр)

    Время предзагрузки промежутка : 500 мс.

    Полное имя : D:\Rycar.Majk.(25.serija).Zimnjaja.progulka.2012.XviD.SATRip.avi

    Формат/Информация : Audio Video Interleave

    Размер файла : 163 Мбайт

    Продолжительность : 11 м.

    Общий поток : 1902 Кбит/сек

    Режиссёр : Rip by Thunder

    Программа кодирования : VirtualDubMod 1.5.10.3 | www.virtualdub-fr.org || (build 2550/release)

    Формат : MPEG-4 Visual

    Профиль формата : Advanced Simple@L5

    Параметр BVOP формата : 2

    Параметр QPel формата : Нет

    Параметр GMC формата : Без точки перехода

    Параметр матрицы формата : Default (H.263)

    Идентификатор кодека : XVID

    Идентификатор кодека/Подсказка : XviD

    Продолжительность : 11 м.

    Битрейт : 1700 Кбит/сек

    Ширина : 720 пикселей

    Высота : 400 пикселей

    Соотношение сторон : 16:9

    Частота кадров : 25,000 кадров/сек

    Цветовое пространство : YUV

    Субдискретизация насыщенности : 4:2:0

    Битовая глубина : 8 бит

    Тип развёртки : Прогрессивная

    Метод сжатия : С потерями

    Размер потока : 146 Мбайт (89%)

    Библиотека кодирования : XviD 1.2.1 (UTC 2008-12-04)

    Формат/Информация : Audio Coding 3

    Расширение режима : CM (complete main)

    Идентификатор кодека : 2000

    Продолжительность : 11 м.

    Вид битрейта : Постоянный

    Битрейт : 192 Кбит/сек

    Каналы : 2 канала

    Расположение каналов : Front: L R

    Частота : 48,0 КГц

    Битовая глубина : 16 бит

    Метод сжатия : С потерями

    Размер потока : 16,5 Мбайт (10%)

    Выравнивание : Разделение по промежуткам

    Продолжительность промежутка : 40 мс. (1,00 видеокадр)

    Время предзагрузки промежутка : 500 мс.

    Полное имя : D:\Rycar.Majk.(26.serija).Rozhdestvenskaja.istorija.2012.XviD.SATRip.avi

    Формат/Информация : Audio Video Interleave

    Размер файла : 163 Мбайт

    Продолжительность : 11 м.

    Общий поток : 1902 Кбит/сек

    Режиссёр : Rip by Thunder

    Программа кодирования : VirtualDubMod 1.5.10.3 | www.virtualdub-fr.org || (build 2550/release)

    Формат : MPEG-4 Visual

    Профиль формата : Advanced Simple@L5

    Параметр BVOP формата : 2

    Параметр QPel формата : Нет

    Параметр GMC формата : Без точки перехода

    Параметр матрицы формата : Default (H.263)

    Идентификатор кодека : XVID

    Идентификатор кодека/Подсказка : XviD

    Продолжительность : 11 м.

    Битрейт : 1700 Кбит/сек

    Ширина : 720 пикселей

    Высота : 400 пикселей

    Соотношение сторон : 16:9

    Частота кадров : 25,000 кадров/сек

    Цветовое пространство : YUV

    Субдискретизация насыщенности : 4:2:0

    Битовая глубина : 8 бит

    Тип развёртки : Прогрессивная

    Метод сжатия : С потерями

    Размер потока : 146 Мбайт (89%)

    Библиотека кодирования : XviD 1.2.1 (UTC 2008-12-04)

    Формат/Информация : Audio Coding 3

    Расширение режима : CM (complete main)

    Идентификатор кодека : 2000

    Продолжительность : 11 м.

    Вид битрейта : Постоянный

    Битрейт : 192 Кбит/сек

    Каналы : 2 канала

    Расположение каналов : Front: L R

    Частота : 48,0 КГц

    Битовая глубина : 16 бит

    Метод сжатия : С потерями

    Размер потока : 16,5 Мбайт (10%)

    Выравнивание : Разделение по промежуткам

    Продолжительность промежутка : 40 мс. (1,00 видеокадр)

    Время предзагрузки промежутка : 500 мс.

    Полное имя : D:\Rycar.Majk.(27.serija).Den.bolshogo.obmena.2012.XviD.SATRip.avi

    Формат/Информация : Audio Video Interleave

    Размер файла : 163 Мбайт

    Продолжительность : 11 м.

    Общий поток : 1902 Кбит/сек

    Режиссёр : Rip by Thunder

    Программа кодирования : VirtualDubMod 1.5.10.3 | www.virtualdub-fr.org || (build 2550/release)

    Формат : MPEG-4 Visual

    Профиль формата : Advanced Simple@L5

    Параметр BVOP формата : 2

    Параметр QPel формата : Нет

    Параметр GMC формата : Без точки перехода

    Параметр матрицы формата : Default (H.263)

    Идентификатор кодека : XVID

    Идентификатор кодека/Подсказка : XviD

    Продолжительность : 11 м.

    Битрейт : 1700 Кбит/сек

    Ширина : 720 пикселей

    Высота : 400 пикселей

    Соотношение сторон : 16:9

    Частота кадров : 25,000 кадров/сек

    Цветовое пространство : YUV

    Субдискретизация насыщенности : 4:2:0

    Битовая глубина : 8 бит

    Тип развёртки : Прогрессивная

    Метод сжатия : С потерями

    Размер потока : 146 Мбайт (89%)

    Библиотека кодирования : XviD 1.2.1 (UTC 2008-12-04)

    Формат/Информация : Audio Coding 3

    Расширение режима : CM (complete main)

    Идентификатор кодека : 2000

    Продолжительность : 11 м.

    Вид битрейта : Постоянный

    Битрейт : 192 Кбит/сек

    Каналы : 2 канала

    Расположение каналов : Front: L R

    Частота : 48,0 КГц

    Битовая глубина : 16 бит

    Метод сжатия : С потерями

    Размер потока : 16,5 Мбайт (10%)

    Выравнивание : Разделение по промежуткам

    Продолжительность промежутка : 40 мс. (1,00 видеокадр)

    Время предзагрузки промежутка : 500 мс.

    Полное имя : D:\Rycar.Majk.(28.serija).Priz.dlja.rycarja.2012.XviD.SATRip.avi

    Формат/Информация : Audio Video Interleave

    Размер файла : 163 Мбайт

    Продолжительность : 11 м.

    Общий поток : 1902 Кбит/сек

    Режиссёр : Rip by Thunder

    Программа кодирования : VirtualDubMod 1.5.10.3 | www.virtualdub-fr.org || (build 2550/release)

    Формат : MPEG-4 Visual

    Профиль формата : Advanced Simple@L5

    Параметр BVOP формата : 2

    Параметр QPel формата : Нет

    Параметр GMC формата : Без точки перехода

    Параметр матрицы формата : Default (H.263)

    Идентификатор кодека : XVID

    Идентификатор кодека/Подсказка : XviD

    Продолжительность : 11 м.

    Битрейт : 1700 Кбит/сек

    Ширина : 720 пикселей

    Высота : 400 пикселей

    Соотношение сторон : 16:9

    Частота кадров : 25,000 кадров/сек

    Цветовое пространство : YUV

    Субдискретизация насыщенности : 4:2:0

    Битовая глубина : 8 бит

    Тип развёртки : Прогрессивная

    Метод сжатия : С потерями

    Размер потока : 146 Мбайт (89%)

    Библиотека кодирования : XviD 1.2.1 (UTC 2008-12-04)

    Формат/Информация : Audio Coding 3

    Расширение режима : CM (complete main)

    Идентификатор кодека : 2000

    Продолжительность : 11 м.

    Вид битрейта : Постоянный

    Битрейт : 192 Кбит/сек

    Каналы : 2 канала

    Расположение каналов : Front: L R

    Частота : 48,0 КГц

    Битовая глубина : 16 бит

    Метод сжатия : С потерями

    Размер потока : 16,5 Мбайт (10%)

    Выравнивание : Разделение по промежуткам

    Продолжительность промежутка : 40 мс. (1,00 видеокадр)

    Время предзагрузки промежутка : 500 мс.

    Полное имя : D:\Rycar.Majk.(29.serija).Bolshoj.parad.2012.XviD.SATRip.avi

    Формат/Информация : Audio Video Interleave

    Размер файла : 163 Мбайт

    Продолжительность : 11 м.

    Общий поток : 1902 Кбит/сек

    Режиссёр : Rip by Thunder

    Программа кодирования : VirtualDubMod 1.5.10.3 | www.virtualdub-fr.org || (build 2550/release)

    Формат : MPEG-4 Visual

    Профиль формата : Advanced Simple@L5

    Параметр BVOP формата : 2

    Параметр QPel формата : Нет

    Параметр GMC формата : Без точки перехода

    Параметр матрицы формата : Default (H.263)

    Идентификатор кодека : XVID

    Идентификатор кодека/Подсказка : XviD

    Продолжительность : 11 м.

    Битрейт : 1700 Кбит/сек

    Ширина : 720 пикселей

    Высота : 400 пикселей

    Соотношение сторон : 16:9

    Частота кадров : 25,000 кадров/сек

    Цветовое пространство : YUV

    Субдискретизация насыщенности : 4:2:0

    Битовая глубина : 8 бит

    Тип развёртки : Прогрессивная

    Метод сжатия : С потерями

    Размер потока : 146 Мбайт (89%)

    Библиотека кодирования : XviD 1.2.1 (UTC 2008-12-04)

    Формат/Информация : Audio Coding 3

    Расширение режима : CM (complete main)

    Идентификатор кодека : 2000

    Продолжительность : 11 м.

    Вид битрейта : Постоянный

    Битрейт : 192 Кбит/сек

    Каналы : 2 канала

    Расположение каналов : Front: L R

    Частота : 48,0 КГц

    Битовая глубина : 16 бит

    Метод сжатия : С потерями

    Размер потока : 16,5 Мбайт (10%)

    Выравнивание : Разделение по промежуткам

    Продолжительность промежутка : 40 мс. (1,00 видеокадр)

    Время предзагрузки промежутка : 500 мс.

    Полное имя : D:\Rycar.Majk.(30.serija).Konkurs.talantov.2012.XviD.SATRip.avi

    Формат/Информация : Audio Video Interleave

    Размер файла : 163 Мбайт

    Продолжительность : 11 м.

    Общий поток : 1902 Кбит/сек

    Режиссёр : Rip by Thunder

    Программа кодирования : VirtualDubMod 1.5.10.3 | www.virtualdub-fr.org || (build 2550/release)

    Формат : MPEG-4 Visual

    Профиль формата : Advanced Simple@L5

    Параметр BVOP формата : 2

    Параметр QPel формата : Нет

    Параметр GMC формата : Без точки перехода

    Параметр матрицы формата : Default (H.263)

    Идентификатор кодека : XVID

    Идентификатор кодека/Подсказка : XviD

    Продолжительность : 11 м.

    Битрейт : 1700 Кбит/сек

    Ширина : 720 пикселей

    Высота : 400 пикселей

    Соотношение сторон : 16:9

    Частота кадров : 25,000 кадров/сек

    Цветовое пространство : YUV

    Субдискретизация насыщенности : 4:2:0

    Битовая глубина : 8 бит

    Тип развёртки : Прогрессивная

    Метод сжатия : С потерями

    Размер потока : 146 Мбайт (89%)

    Библиотека кодирования : XviD 1.2.1 (UTC 2008-12-04)

    Формат/Информация : Audio Coding 3

    Расширение режима : CM (complete main)

    Идентификатор кодека : 2000

    Продолжительность : 11 м.

    Вид битрейта : Постоянный

    Битрейт : 192 Кбит/сек

    Каналы : 2 канала

    Расположение каналов : Front: L R

    Частота : 48,0 КГц

    Битовая глубина : 16 бит

    Метод сжатия : С потерями

    Размер потока : 16,5 Мбайт (10%)

    Выравнивание : Разделение по промежуткам

    Продолжительность промежутка : 40 мс. (1,00 видеокадр)

    Время предзагрузки промежутка : 500 мс.

    Полное имя : D:\Rycar.Majk.(31.serija).Noch.v.lesu.2012.XviD.SATRip.avi

    Формат/Информация : Audio Video Interleave

    Размер файла : 163 Мбайт

    Продолжительность : 11 м.

    Общий поток : 1902 Кбит/сек

    Режиссёр : Rip by Thunder

    Программа кодирования : VirtualDubMod 1.5.10.3 | www.virtualdub-fr.org || (build 2550/release)

    Формат : MPEG-4 Visual

    Профиль формата : Advanced Simple@L5

    Параметр BVOP формата : 2

    Параметр QPel формата : Нет

    Параметр GMC формата : Без точки перехода

    Параметр матрицы формата : Default (H.263)

    Идентификатор кодека : XVID

    Идентификатор кодека/Подсказка : XviD

    Продолжительность : 11 м.

    Битрейт : 1700 Кбит/сек

    Ширина : 720 пикселей

    Высота : 400 пикселей

    Соотношение сторон : 16:9

    Частота кадров : 25,000 кадров/сек

    Цветовое пространство : YUV

    Субдискретизация насыщенности : 4:2:0

    Битовая глубина : 8 бит

    Тип развёртки : Прогрессивная

    Метод сжатия : С потерями

    Размер потока : 146 Мбайт (89%)

    Библиотека кодирования : XviD 1.2.1 (UTC 2008-12-04)

    Формат/Информация : Audio Coding 3

    Расширение режима : CM (complete main)

    Идентификатор кодека : 2000

    Продолжительность : 11 м.

    Вид битрейта : Постоянный

    Битрейт : 192 Кбит/сек

    Каналы : 2 канала

    Расположение каналов : Front: L R

    Частота : 48,0 КГц

    Битовая глубина : 16 бит

    Метод сжатия : С потерями

    Размер потока : 16,5 Мбайт (10%)

    Выравнивание : Разделение по промежуткам

    Продолжительность промежутка : 40 мс. (1,00 видеокадр)

    Время предзагрузки промежутка : 500 мс.

    Полное имя : D:\Rycar.Majk.(32.serija).Zhivotnoe.dlja.rycarja.2012.XviD.SATRip.avi

    Формат/Информация : Audio Video Interleave

    Размер файла : 163 Мбайт

    Продолжительность : 11 м.

    Общий поток : 1902 Кбит/сек

    Режиссёр : Rip by Thunder

    Программа кодирования : VirtualDubMod 1.5.10.3 | www.virtualdub-fr.org || (build 2550/release)

    Формат : MPEG-4 Visual

    Профиль формата : Advanced Simple@L5

    Параметр BVOP формата : 2

    Параметр QPel формата : Нет

    Параметр GMC формата : Без точки перехода

    Параметр матрицы формата : Default (H.263)

    Идентификатор кодека : XVID

    Идентификатор кодека/Подсказка : XviD

    Продолжительность : 11 м.

    Битрейт : 1700 Кбит/сек

    Ширина : 720 пикселей

    Высота : 400 пикселей

    Соотношение сторон : 16:9

    Частота кадров : 25,000 кадров/сек

    Цветовое пространство : YUV

    Субдискретизация насыщенности : 4:2:0

    Битовая глубина : 8 бит

    Тип развёртки : Прогрессивная

    Метод сжатия : С потерями

    Размер потока : 146 Мбайт (89%)

    Библиотека кодирования : XviD 1.2.1 (UTC 2008-12-04)

    Формат/Информация : Audio Coding 3

    Расширение режима : CM (complete main)

    Идентификатор кодека : 2000

    Продолжительность : 11 м.

    Вид битрейта : Постоянный

    Битрейт : 192 Кбит/сек

    Каналы : 2 канала

    Расположение каналов : Front: L R

    Частота : 48,0 КГц

    Битовая глубина : 16 бит

    Метод сжатия : С потерями

    Размер потока : 16,5 Мбайт (10%)

    Выравнивание : Разделение по промежуткам

    Продолжительность промежутка : 40 мс. (1,00 видеокадр)

    Время предзагрузки промежутка : 500 мс.

    Полное имя : D:\Rycar.Majk.(33.serija).Sekret.uspeshnogo.spasenija.2012.XviD.SATRip.avi

    Формат/Информация : Audio Video Interleave

    Размер файла : 163 Мбайт

    Продолжительность : 11 м.

    Общий поток : 1902 Кбит/сек

    Режиссёр : Rip by Thunder

    Программа кодирования : VirtualDubMod 1.5.10.3 | www.virtualdub-fr.org || (build 2550/release)

    Формат : MPEG-4 Visual

    Профиль формата : Advanced Simple@L5

    Параметр BVOP формата : 2

    Параметр QPel формата : Нет

    Параметр GMC формата : Без точки перехода

    Параметр матрицы формата : Default (H.263)

    Идентификатор кодека : XVID

    Идентификатор кодека/Подсказка : XviD

    Продолжительность : 11 м.

    Битрейт : 1700 Кбит/сек

    Ширина : 720 пикселей

    Высота : 400 пикселей

    Соотношение сторон : 16:9

    Частота кадров : 25,000 кадров/сек

    Цветовое пространство : YUV

    Субдискретизация насыщенности : 4:2:0

    Битовая глубина : 8 бит

    Тип развёртки : Прогрессивная

    Метод сжатия : С потерями

    Размер потока : 146 Мбайт (89%)

    Библиотека кодирования : XviD 1.2.1 (UTC 2008-12-04)

    Формат/Информация : Audio Coding 3

    Расширение режима : CM (complete main)

    Идентификатор кодека : 2000

    Продолжительность : 11 м.

    Вид битрейта : Постоянный

    Битрейт : 192 Кбит/сек

    Каналы : 2 канала

    Расположение каналов : Front: L R

    Частота : 48,0 КГц

    Битовая глубина : 16 бит

    Метод сжатия : С потерями

    Размер потока : 16,5 Мбайт (10%)

    Выравнивание : Разделение по промежуткам

    Продолжительность промежутка : 40 мс. (1,00 видеокадр)

    Время предзагрузки промежутка : 500 мс.

    Полное имя : D:\Rycar.Majk.(34.serija).Istinnaja.hrabrost.2012.XviD.SATRip.avi

    Формат/Информация : Audio Video Interleave

    Размер файла : 163 Мбайт

    Продолжительность : 11 м.

    Общий поток : 1902 Кбит/сек

    Режиссёр : Rip by Thunder

    Программа кодирования : VirtualDubMod 1.5.10.3 | www.virtualdub-fr.org || (build 2550/release)

    Формат : MPEG-4 Visual

    Профиль формата : Advanced Simple@L5

    Параметр BVOP формата : 2

    Параметр QPel формата : Нет

    Параметр GMC формата : Без точки перехода

    Параметр матрицы формата : Default (H.263)

    Идентификатор кодека : XVID

    Идентификатор кодека/Подсказка : XviD

    Продолжительность : 11 м.

    Битрейт : 1700 Кбит/сек

    Ширина : 720 пикселей

    Высота : 400 пикселей

    Соотношение сторон : 16:9

    Частота кадров : 25,000 кадров/сек

    Цветовое пространство : YUV

    Субдискретизация насыщенности : 4:2:0

    Битовая глубина : 8 бит

    Тип развёртки : Прогрессивная

    Метод сжатия : С потерями

    Размер потока : 146 Мбайт (89%)

    Библиотека кодирования : XviD 1.2.1 (UTC 2008-12-04)

    Формат/Информация : Audio Coding 3

    Расширение режима : CM (complete main)

    Идентификатор кодека : 2000

    Продолжительность : 11 м.

    Вид битрейта : Постоянный

    Битрейт : 192 Кбит/сек

    Каналы : 2 канала

    Расположение каналов : Front: L R

    Частота : 48,0 КГц

    Битовая глубина : 16 бит

    Метод сжатия : С потерями

    Размер потока : 16,5 Мбайт (10%)

    Выравнивание : Разделение по промежуткам

    Продолжительность промежутка : 40 мс. (1,00 видеокадр)

    Время предзагрузки промежутка : 500 мс.

    Полное имя : D:\Rycar.Majk.(35.serija).Sekretnyj.ingredient.2012.XviD.SATRip.avi

    Формат/Информация : Audio Video Interleave

    Размер файла : 163 Мбайт

    Продолжительность : 11 м.

    Общий поток : 1902 Кбит/сек

    Режиссёр : Rip by Thunder

    Программа кодирования : VirtualDubMod 1.5.10.3 | www.virtualdub-fr.org || (build 2550/release)

    Формат : MPEG-4 Visual

    Профиль формата : Advanced Simple@L5

    Параметр BVOP формата : 2

    Параметр QPel формата : Нет

    Параметр GMC формата : Без точки перехода

    Параметр матрицы формата : Default (H.263)

    Идентификатор кодека : XVID

    Идентификатор кодека/Подсказка : XviD

    Продолжительность : 11 м.

    Битрейт : 1700 Кбит/сек

    Ширина : 720 пикселей

    Высота : 400 пикселей

    Соотношение сторон : 16:9

    Частота кадров : 25,000 кадров/сек

    Цветовое пространство : YUV

    Субдискретизация насыщенности : 4:2:0

    Битовая глубина : 8 бит

    Тип развёртки : Прогрессивная

    Метод сжатия : С потерями

    Размер потока : 146 Мбайт (89%)

    Библиотека кодирования : XviD 1.2.1 (UTC 2008-12-04)

    Формат/Информация : Audio Coding 3

    Расширение режима : CM (complete main)

    Идентификатор кодека : 2000

    Продолжительность : 11 м.

    Вид битрейта : Постоянный

    Битрейт : 192 Кбит/сек

    Каналы : 2 канала

    Расположение каналов : Front: L R

    Частота : 48,0 КГц

    Битовая глубина : 16 бит

    Метод сжатия : С потерями

    Размер потока : 16,5 Мбайт (10%)

    Выравнивание : Разделение по промежуткам

    Продолжительность промежутка : 40 мс. (1,00 видеокадр)

    Время предзагрузки промежутка : 500 мс.

    Полное имя : D:\Rycar.Majk.(36.serija).Sokrovishhe.dlja.volshebnicy.2012.XviD.SATRip.avi

    Формат/Информация : Audio Video Interleave

    Размер файла : 163 Мбайт

    Продолжительность : 11 м.

    Общий поток : 1902 Кбит/сек

    Режиссёр : Rip by Thunder

    Программа кодирования : VirtualDubMod 1.5.10.3 | www.virtualdub-fr.org || (build 2550/release)

    Формат : MPEG-4 Visual

    Профиль формата : Advanced Simple@L5

    Параметр BVOP формата : 2

    Параметр QPel формата : Нет

    Параметр GMC формата : Без точки перехода

    Параметр матрицы формата : Default (H.263)

    Идентификатор кодека : XVID

    Идентификатор кодека/Подсказка : XviD

    Продолжительность : 11 м.

    Битрейт : 1700 Кбит/сек

    Ширина : 720 пикселей

    Высота : 400 пикселей

    Соотношение сторон : 16:9

    Частота кадров : 25,000 кадров/сек

    Цветовое пространство : YUV

    Субдискретизация насыщенности : 4:2:0

    Битовая глубина : 8 бит

    Тип развёртки : Прогрессивная

    Метод сжатия : С потерями

    Размер потока : 146 Мбайт (89%)

    Библиотека кодирования : XviD 1.2.1 (UTC 2008-12-04)

    Формат/Информация : Audio Coding 3

    Расширение режима : CM (complete main)

    Идентификатор кодека : 2000

    Продолжительность : 11 м.

    Вид битрейта : Постоянный

    Битрейт : 192 Кбит/сек

    Каналы : 2 канала

    Расположение каналов : Front: L R

    Частота : 48,0 КГц

    Битовая глубина : 16 бит

    Метод сжатия : С потерями

    Размер потока : 16,5 Мбайт (10%)

    Выравнивание : Разделение по промежуткам

    Продолжительность промежутка : 40 мс. (1,00 видеокадр)

    Время предзагрузки промежутка : 500 мс.

    Полное имя : D:\Rycar.Majk.(37.serija).Samyj.luchshij.rycar.2012.XviD.SATRip.avi

    Формат/Информация : Audio Video Interleave

    Размер файла : 163 Мбайт

    Продолжительность : 11 м.

    Общий поток : 1902 Кбит/сек

    Режиссёр : Rip by Thunder

    Программа кодирования : VirtualDubMod 1.5.10.3 | www.virtualdub-fr.org || (build 2550/release)

    Формат : MPEG-4 Visual

    Профиль формата : Advanced Simple@L5

    Параметр BVOP формата : 2

    Параметр QPel формата : Нет

    Параметр GMC формата : Без точки перехода

    Параметр матрицы формата : Default (H.263)

    Идентификатор кодека : XVID

    Идентификатор кодека/Подсказка : XviD

    Продолжительность : 11 м.

    Битрейт : 1700 Кбит/сек

    Ширина : 720 пикселей

    Высота : 400 пикселей

    Соотношение сторон : 16:9

    Частота кадров : 25,000 кадров/сек

    Цветовое пространство : YUV

    Субдискретизация насыщенности : 4:2:0

    Битовая глубина : 8 бит

    Тип развёртки : Прогрессивная

    Метод сжатия : С потерями

    Размер потока : 146 Мбайт (89%)

    Библиотека кодирования : XviD 1.2.1 (UTC 2008-12-04)

    Формат/Информация : Audio Coding 3

    Расширение режима : CM (complete main)

    Идентификатор кодека : 2000

    Продолжительность : 11 м.

    Вид битрейта : Постоянный

    Битрейт : 192 Кбит/сек

    Каналы : 2 канала

    Расположение каналов : Front: L R

    Частота : 48,0 КГц

    Битовая глубина : 16 бит

    Метод сжатия : С потерями

    Размер потока : 16,5 Мбайт (10%)

    Выравнивание : Разделение по промежуткам

    Продолжительность промежутка : 40 мс. (1,00 видеокадр)

    Время предзагрузки промежутка : 500 мс.

    Полное имя : D:\Rycar.Majk.(38.serija).Novyj.zamok.2012.XviD.SATRip.avi

    Формат/Информация : Audio Video Interleave

    Размер файла : 163 Мбайт

    Продолжительность : 11 м.

    Общий поток : 1902 Кбит/сек

    Режиссёр : Rip by Thunder

    Программа кодирования : VirtualDubMod 1.5.10.3 | www.virtualdub-fr.org || (build 2550/release)

    Формат : MPEG-4 Visual

    Профиль формата : Advanced Simple@L5

    Параметр BVOP формата : 2

    Параметр QPel формата : Нет

    Параметр GMC формата : Без точки перехода

    Параметр матрицы формата : Default (H.263)

    Идентификатор кодека : XVID

    Идентификатор кодека/Подсказка : XviD

    Продолжительность : 11 м.

    Битрейт : 1700 Кбит/сек

    Ширина : 720 пикселей

    Высота : 400 пикселей

    Соотношение сторон : 16:9

    Частота кадров : 25,000 кадров/сек

    Цветовое пространство : YUV

    Субдискретизация насыщенности : 4:2:0

    Битовая глубина : 8 бит

    Тип развёртки : Прогрессивная

    Метод сжатия : С потерями

    Размер потока : 146 Мбайт (89%)

    Библиотека кодирования : XviD 1.2.1 (UTC 2008-12-04)

    Формат/Информация : Audio Coding 3

    Расширение режима : CM (complete main)

    Идентификатор кодека : 2000

    Продолжительность : 11 м.

    Вид битрейта : Постоянный

    Битрейт : 192 Кбит/сек

    Каналы : 2 канала

    Расположение каналов : Front: L R

    Частота : 48,0 КГц

    Битовая глубина : 16 бит

    Метод сжатия : С потерями

    Размер потока : 16,5 Мбайт (10%)

    Выравнивание : Разделение по промежуткам

    Продолжительность промежутка : 40 мс. (1,00 видеокадр)

    Время предзагрузки промежутка : 500 мс.

    Полное имя : D:\Rycar.Majk.(39.serija).Kon.v.goroshek.2012.XviD.SATRip.avi

    Формат/Информация : Audio Video Interleave

    Размер файла : 163 Мбайт

    Продолжительность : 11 м.

    Общий поток : 1902 Кбит/сек

    Режиссёр : Rip by Thunder

    Программа кодирования : VirtualDubMod 1.5.10.3 | www.virtualdub-fr.org || (build 2550/release)

    Формат : MPEG-4 Visual

    Профиль формата : Advanced Simple@L5

    Параметр BVOP формата : 2

    Параметр QPel формата : Нет

    Параметр GMC формата : Без точки перехода

    Параметр матрицы формата : Default (H.263)

    Идентификатор кодека : XVID

    Идентификатор кодека/Подсказка : XviD

    Продолжительность : 11 м.

    Битрейт : 1700 Кбит/сек

    Ширина : 720 пикселей

    Высота : 400 пикселей

    Соотношение сторон : 16:9

    Частота кадров : 25,000 кадров/сек

    Цветовое пространство : YUV

    Субдискретизация насыщенности : 4:2:0

    Битовая глубина : 8 бит

    Тип развёртки : Прогрессивная

    Метод сжатия : С потерями

    Размер потока : 146 Мбайт (89%)

    Библиотека кодирования : XviD 1.2.1 (UTC 2008-12-04)

    Формат/Информация : Audio Coding 3

    Расширение режима : CM (complete main)

    Идентификатор кодека : 2000

    Продолжительность : 11 м.

    Вид битрейта : Постоянный

    Битрейт : 192 Кбит/сек

    Каналы : 2 канала

    Расположение каналов : Front: L R

    Частота : 48,0 КГц

    Битовая глубина : 16 бит

    Метод сжатия : С потерями

    Размер потока : 16,5 Мбайт (10%)

    Выравнивание : Разделение по промежуткам

    Продолжительность промежутка : 40 мс. (1,00 видеокадр)

    Время предзагрузки промежутка : 500 мс.

    Полное имя : D:\Rycar.Majk.(40.serija).Igry.na.snegu.2012.XviD.SATRip.avi

    Формат/Информация : Audio Video Interleave

    Размер файла : 163 Мбайт

    Продолжительность : 11 м.

    Общий поток : 1902 Кбит/сек

    Режиссёр : Rip by Thunder

    Программа кодирования : VirtualDubMod 1.5.10.3 | www.virtualdub-fr.org || (build 2550/release)

    Формат : MPEG-4 Visual

    Профиль формата : Advanced Simple@L5

    Параметр BVOP формата : 2

    Параметр QPel формата : Нет

    Параметр GMC формата : Без точки перехода

    Параметр матрицы формата : Default (H.263)

    Идентификатор кодека : XVID

    Идентификатор кодека/Подсказка : XviD

    Продолжительность : 11 м.

    Битрейт : 1700 Кбит/сек

    Ширина : 720 пикселей

    Высота : 400 пикселей

    Соотношение сторон : 16:9

    Частота кадров : 25,000 кадров/сек

    Цветовое пространство : YUV

    Субдискретизация насыщенности : 4:2:0

    Битовая глубина : 8 бит

    Тип развёртки : Прогрессивная

    Метод сжатия : С потерями

    Размер потока : 146 Мбайт (89%)

    Библиотека кодирования : XviD 1.2.1 (UTC 2008-12-04)

    Формат/Информация : Audio Coding 3

    Расширение режима : CM (complete main)

    Идентификатор кодека : 2000

    Продолжительность : 11 м.

    Вид битрейта : Постоянный

    Битрейт : 192 Кбит/сек

    Каналы : 2 канала

    Расположение каналов : Front: L R

    Частота : 48,0 КГц

    Битовая глубина : 16 бит

    Метод сжатия : С потерями

    Размер потока : 16,5 Мбайт (10%)

    Выравнивание : Разделение по промежуткам

    Продолжительность промежутка : 40 мс. (1,00 видеокадр)

    Время предзагрузки промежутка : 500 мс.

    Полное имя : D:\Rycar.Majk.(41.serija).Uvlekatelnaja.istorija.2012.XviD.SATRip.avi

    Формат/Информация : Audio Video Interleave

    Размер файла : 163 Мбайт

    Продолжительность : 11 м.

    Общий поток : 1902 Кбит/сек

    Режиссёр : Rip by Thunder

    Программа кодирования : VirtualDubMod 1.5.10.3 | www.virtualdub-fr.org || (build 2550/release)

    Формат : MPEG-4 Visual

    Профиль формата : Advanced Simple@L5

    Параметр BVOP формата : 2

    Параметр QPel формата : Нет

    Параметр GMC формата : Без точки перехода

    Параметр матрицы формата : Default (H.263)

    Идентификатор кодека : XVID

    Идентификатор кодека/Подсказка : XviD

    Продолжительность : 11 м.

    Битрейт : 1700 Кбит/сек

    Ширина : 720 пикселей

    Высота : 400 пикселей

    Соотношение сторон : 16:9

    Частота кадров : 25,000 кадров/сек

    Цветовое пространство : YUV

    Субдискретизация насыщенности : 4:2:0

    Битовая глубина : 8 бит

    Тип развёртки : Прогрессивная

    Метод сжатия : С потерями

    Размер потока : 146 Мбайт (89%)

    Библиотека кодирования : XviD 1.2.1 (UTC 2008-12-04)

    Формат/Информация : Audio Coding 3

    Расширение режима : CM (complete main)

    Идентификатор кодека : 2000

    Продолжительность : 11 м.

    Вид битрейта : Постоянный

    Битрейт : 192 Кбит/сек

    Каналы : 2 канала

    Расположение каналов : Front: L R

    Частота : 48,0 КГц

    Битовая глубина : 16 бит

    Метод сжатия : С потерями

    Размер потока : 16,5 Мбайт (10%)

    Выравнивание : Разделение по промежуткам

    Продолжительность промежутка : 40 мс. (1,00 видеокадр)

    Время предзагрузки промежутка : 500 мс.

    Полное имя : D:\Rycar.Majk.(42.serija).Medal.za.hrabrost.2012.XviD.SATRip.avi

    Формат/Информация : Audio Video Interleave

    Размер файла : 163 Мбайт

    Продолжительность : 11 м.

    Общий поток : 1902 Кбит/сек

    Режиссёр : Rip by Thunder

    Программа кодирования : VirtualDubMod 1.5.10.3 | www.virtualdub-fr.org || (build 2550/release)

    Формат : MPEG-4 Visual

    Профиль формата : Advanced Simple@L5

    Параметр BVOP формата : 2

    Параметр QPel формата : Нет

    Параметр GMC формата : Без точки перехода

    Параметр матрицы формата : Default (H.263)

    Идентификатор кодека : XVID

    Идентификатор кодека/Подсказка : XviD

    Продолжительность : 11 м.

    Битрейт : 1700 Кбит/сек

    Ширина : 720 пикселей

    Высота : 400 пикселей

    Соотношение сторон : 16:9

    Частота кадров : 25,000 кадров/сек

    Цветовое пространство : YUV

    Субдискретизация насыщенности : 4:2:0

    Битовая глубина : 8 бит

    Тип развёртки : Прогрессивная

    Метод сжатия : С потерями

    Размер потока : 146 Мбайт (89%)

    Библиотека кодирования : XviD 1.2.1 (UTC 2008-12-04)

    Формат/Информация : Audio Coding 3

    Расширение режима : CM (complete main)

    Идентификатор кодека : 2000

    Продолжительность : 11 м.

    Вид битрейта : Постоянный

    Битрейт : 192 Кбит/сек

    Каналы : 2 канала

    Расположение каналов : Front: L R

    Частота : 48,0 КГц

    Битовая глубина : 16 бит

    Метод сжатия : С потерями

    Размер потока : 16,5 Мбайт (10%)

    Выравнивание : Разделение по промежуткам

    Продолжительность промежутка : 40 мс. (1,00 видеокадр)

    Время предзагрузки промежутка : 500 мс.

    Полное имя : D:\Rycar.Majk.(43.serija).Poleznyj.rycar.2012.XviD.SATRip.avi

    Формат/Информация : Audio Video Interleave

    Размер файла : 163 Мбайт

    Продолжительность : 11 м.

    Общий поток : 1902 Кбит/сек

    Режиссёр : Rip by Thunder

    Программа кодирования : VirtualDubMod 1.5.10.3 | www.virtualdub-fr.org || (build 2550/release)

    Формат : MPEG-4 Visual

    Профиль формата : Advanced Simple@L5

    Параметр BVOP формата : 2

    Параметр QPel формата : Нет

    Параметр GMC формата : Без точки перехода

    Параметр матрицы формата : Default (H.263)

    Идентификатор кодека : XVID

    Идентификатор кодека/Подсказка : XviD

    Продолжительность : 11 м.

    Битрейт : 1700 Кбит/сек

    Ширина : 720 пикселей

    Высота : 400 пикселей

    Соотношение сторон : 16:9

    Частота кадров : 25,000 кадров/сек

    Цветовое пространство : YUV

    Субдискретизация насыщенности : 4:2:0

    Битовая глубина : 8 бит

    Тип развёртки : Прогрессивная

    Метод сжатия : С потерями

    Размер потока : 146 Мбайт (89%)

    Библиотека кодирования : XviD 1.2.1 (UTC 2008-12-04)

    Формат/Информация : Audio Coding 3

    Расширение режима : CM (complete main)

    Идентификатор кодека : 2000

    Продолжительность : 11 м.

    Вид битрейта : Постоянный

    Битрейт : 192 Кбит/сек

    Каналы : 2 канала

    Расположение каналов : Front: L R

    Частота : 48,0 КГц

    Битовая глубина : 16 бит

    Метод сжатия : С потерями

    Размер потока : 16,5 Мбайт (10%)

    Выравнивание : Разделение по промежуткам

    Продолжительность промежутка : 40 мс. (1,00 видеокадр)

    Время предзагрузки промежутка : 500 мс.

    Полное имя : D:\Rycar.Majk.(44.serija).Kukolnoe.predstavlenie.2012.XviD.SATRip.avi

    Формат/Информация : Audio Video Interleave

    Размер файла : 163 Мбайт

    Продолжительность : 11 м.

    Общий поток : 1902 Кбит/сек

    Режиссёр : Rip by Thunder

    Программа кодирования : VirtualDubMod 1.5.10.3 | www.virtualdub-fr.org || (build 2550/release)

    Формат : MPEG-4 Visual

    Профиль формата : Advanced Simple@L5

    Параметр BVOP формата : 2

    Параметр QPel формата : Нет

    Параметр GMC формата : Без точки перехода

    Параметр матрицы формата : Default (H.263)

    Идентификатор кодека : XVID

    Идентификатор кодека/Подсказка : XviD

    Продолжительность : 11 м.

    Битрейт : 1700 Кбит/сек

    Ширина : 720 пикселей

    Высота : 400 пикселей

    Соотношение сторон : 16:9

    Частота кадров : 25,000 кадров/сек

    Цветовое пространство : YUV

    Субдискретизация насыщенности : 4:2:0

    Битовая глубина : 8 бит

    Тип развёртки : Прогрессивная

    Метод сжатия : С потерями

    Размер потока : 146 Мбайт (89%)

    Библиотека кодирования : XviD 1.2.1 (UTC 2008-12-04)

    Формат/Информация : Audio Coding 3

    Расширение режима : CM (complete main)

    Идентификатор кодека : 2000

    Продолжительность : 11 м.

    Вид битрейта : Постоянный

    Битрейт : 192 Кбит/сек

    Каналы : 2 канала

    Расположение каналов : Front: L R

    Частота : 48,0 КГц

    Битовая глубина : 16 бит

    Метод сжатия : С потерями

    Размер потока : 16,5 Мбайт (10%)

    Выравнивание : Разделение по промежуткам

    Продолжительность промежутка : 40 мс. (1,00 видеокадр)

    Время предзагрузки промежутка : 500 мс.

    Полное имя : D:\Rycar.Majk.(45.serija).Piknik.na.pljazhe.2012.XviD.SATRip.avi

    Формат/Информация : Audio Video Interleave

    Размер файла : 163 Мбайт

    Продолжительность : 11 м.

    Общий поток : 1902 Кбит/сек

    Режиссёр : Rip by Thunder

    Программа кодирования : VirtualDubMod 1.5.10.3 | www.virtualdub-fr.org || (build 2550/release)

    Формат : MPEG-4 Visual

    Профиль формата : Advanced Simple@L5

    Параметр BVOP формата : 2

    Параметр QPel формата : Нет

    Параметр GMC формата : Без точки перехода

    Параметр матрицы формата : Default (H.263)

    Идентификатор кодека : XVID

    Идентификатор кодека/Подсказка : XviD

    Продолжительность : 11 м.

    Битрейт : 1700 Кбит/сек

    Ширина : 720 пикселей

    Высота : 400 пикселей

    Соотношение сторон : 16:9

    Частота кадров : 25,000 кадров/сек

    Цветовое пространство : YUV

    Субдискретизация насыщенности : 4:2:0

    Битовая глубина : 8 бит

    Тип развёртки : Прогрессивная

    Метод сжатия : С потерями

    Размер потока : 146 Мбайт (89%)

    Библиотека кодирования : XviD 1.2.1 (UTC 2008-12-04)

    Формат/Информация : Audio Coding 3

    Расширение режима : CM (complete main)

    Идентификатор кодека : 2000

    Продолжительность : 11 м.

    Вид битрейта : Постоянный

    Битрейт : 192 Кбит/сек

    Каналы : 2 канала

    Расположение каналов : Front: L R

    Частота : 48,0 КГц

    Битовая глубина : 16 бит

    Метод сжатия : С потерями

    Размер потока : 16,5 Мбайт (10%)

    Выравнивание : Разделение по промежуткам

    Продолжительность промежутка : 40 мс. (1,00 видеокадр)

    Время предзагрузки промежутка : 500 мс.

    Полное имя : D:\Rycar.Majk.(46.serija).Volshebnyj.gorshok.2012.XviD.SATRip.avi

    Формат/Информация : Audio Video Interleave

    Размер файла : 163 Мбайт

    Продолжительность : 11 м.

    Общий поток : 1902 Кбит/сек

    Режиссёр : Rip by Thunder

    Программа кодирования : VirtualDubMod 1.5.10.3 | www.virtualdub-fr.org || (build 2550/release)

    Формат : MPEG-4 Visual

    Профиль формата : Advanced Simple@L5

    Параметр BVOP формата : 2

    Параметр QPel формата : Нет

    Параметр GMC формата : Без точки перехода

    Параметр матрицы формата : Default (H.263)

    Идентификатор кодека : XVID

    Идентификатор кодека/Подсказка : XviD

    Продолжительность : 11 м.

    Битрейт : 1700 Кбит/сек

    Ширина : 720 пикселей

    Высота : 400 пикселей

    Соотношение сторон : 16:9

    Частота кадров : 25,000 кадров/сек

    Цветовое пространство : YUV

    Субдискретизация насыщенности : 4:2:0

    Битовая глубина : 8 бит

    Тип развёртки : Прогрессивная

    Метод сжатия : С потерями

    Размер потока : 146 Мбайт (89%)

    Библиотека кодирования : XviD 1.2.1 (UTC 2008-12-04)

    Формат/Информация : Audio Coding 3

    Расширение режима : CM (complete main)

    Идентификатор кодека : 2000

    Продолжительность : 11 м.

    Вид битрейта : Постоянный

    Битрейт : 192 Кбит/сек

    Каналы : 2 канала

    Расположение каналов : Front: L R

    Частота : 48,0 КГц

    Битовая глубина : 16 бит

    Метод сжатия : С потерями

    Размер потока : 16,5 Мбайт (10%)

    Выравнивание : Разделение по промежуткам

    Продолжительность промежутка : 40 мс. (1,00 видеокадр)

    Время предзагрузки промежутка : 500 мс.

    Полное имя : D:\Rycar.Majk.(47.serija).Pirog.s.rubinom.2012.XviD.SATRip.avi

    Формат/Информация : Audio Video Interleave

    Размер файла : 163 Мбайт

    Продолжительность : 11 м.

    Общий поток : 1902 Кбит/сек

    Режиссёр : Rip by Thunder

    Программа кодирования : VirtualDubMod 1.5.10.3 | www.virtualdub-fr.org || (build 2550/release)

    Формат : MPEG-4 Visual

    Профиль формата : Advanced Simple@L5

    Параметр BVOP формата : 2

    Параметр QPel формата : Нет

    Параметр GMC формата : Без точки перехода

    Параметр матрицы формата : Default (H.263)

    Идентификатор кодека : XVID

    Идентификатор кодека/Подсказка : XviD

    Продолжительность : 11 м.

    Битрейт : 1700 Кбит/сек

    Ширина : 720 пикселей

    Высота : 400 пикселей

    Соотношение сторон : 16:9

    Частота кадров : 25,000 кадров/сек

    Цветовое пространство : YUV

    Субдискретизация насыщенности : 4:2:0

    Битовая глубина : 8 бит

    Тип развёртки : Прогрессивная

    Метод сжатия : С потерями

    Размер потока : 146 Мбайт (89%)

    Библиотека кодирования : XviD 1.2.1 (UTC 2008-12-04)

    Формат/Информация : Audio Coding 3

    Расширение режима : CM (complete main)

    Идентификатор кодека : 2000

    Продолжительность : 11 м.

    Вид битрейта : Постоянный

    Битрейт : 192 Кбит/сек

    Каналы : 2 канала

    Расположение каналов : Front: L R

    Частота : 48,0 КГц

    Битовая глубина : 16 бит

    Метод сжатия : С потерями

    Размер потока : 16,5 Мбайт (10%)

    Выравнивание : Разделение по промежуткам

    Продолжительность промежутка : 40 мс. (1,00 видеокадр)

    Время предзагрузки промежутка : 500 мс.

    Полное имя : D:\Rycar.Majk.(48.serija).Medvezhja.usluga.2012.XviD.SATRip.avi

    Формат/Информация : Audio Video Interleave

    Размер файла : 163 Мбайт

    Продолжительность : 11 м.

    Общий поток : 1902 Кбит/сек

    Режиссёр : Rip by Thunder

    Программа кодирования : VirtualDubMod 1.5.10.3 | www.virtualdub-fr.org || (build 2550/release)

    Формат : MPEG-4 Visual

    Профиль формата : Advanced Simple@L5

    Параметр BVOP формата : 2

    Параметр QPel формата : Нет

    Параметр GMC формата : Без точки перехода

    Параметр матрицы формата : Default (H.263)

    Идентификатор кодека : XVID

    Идентификатор кодека/Подсказка : XviD

    Продолжительность : 11 м.

    Битрейт : 1700 Кбит/сек

    Ширина : 720 пикселей

    Высота : 400 пикселей

    Соотношение сторон : 16:9

    Частота кадров : 25,000 кадров/сек

    Цветовое пространство : YUV

    Субдискретизация насыщенности : 4:2:0

    Битовая глубина : 8 бит

    Тип развёртки : Прогрессивная

    Метод сжатия : С потерями

    Размер потока : 146 Мбайт (89%)

    Библиотека кодирования : XviD 1.2.1 (UTC 2008-12-04)

    Формат/Информация : Audio Coding 3

    Расширение режима : CM (complete main)

    Идентификатор кодека : 2000

    Продолжительность : 11 м.

    Вид битрейта : Постоянный

    Битрейт : 192 Кбит/сек

    Каналы : 2 канала

    Расположение каналов : Front: L R

    Частота : 48,0 КГц

    Битовая глубина : 16 бит

    Метод сжатия : С потерями

    Размер потока : 16,5 Мбайт (10%)

    Выравнивание : Разделение по промежуткам

    Продолжительность промежутка : 40 мс. (1,00 видеокадр)

    Время предзагрузки промежутка : 500 мс.

    Полное имя : D:\Rycar.Majk.(49.serija).Velikij.zashhitnik.2012.XviD.SATRip.avi

    Формат/Информация : Audio Video Interleave

    Размер файла : 163 Мбайт

    Продолжительность : 11 м.

    Общий поток : 1902 Кбит/сек

    Режиссёр : Rip by Thunder

    Программа кодирования : VirtualDubMod 1.5.10.3 | www.virtualdub-fr.org || (build 2550/release)

    Формат : MPEG-4 Visual

    Профиль формата : Advanced Simple@L5

    Параметр BVOP формата : 2

    Параметр QPel формата : Нет

    Параметр GMC формата : Без точки перехода

    Параметр матрицы формата : Default (H.263)

    Идентификатор кодека : XVID

    Идентификатор кодека/Подсказка : XviD

    Продолжительность : 11 м.

    Битрейт : 1700 Кбит/сек

    Ширина : 720 пикселей

    Высота : 400 пикселей

    Соотношение сторон : 16:9

    Частота кадров : 25,000 кадров/сек

    Цветовое пространство : YUV

    Субдискретизация насыщенности : 4:2:0

    Битовая глубина : 8 бит

    Тип развёртки : Прогрессивная

    Метод сжатия : С потерями

    Размер потока : 146 Мбайт (89%)

    Библиотека кодирования : XviD 1.2.1 (UTC 2008-12-04)

    Формат/Информация : Audio Coding 3

    Расширение режима : CM (complete main)

    Идентификатор кодека : 2000

    Продолжительность : 11 м.

    Вид битрейта : Постоянный

    Битрейт : 192 Кбит/сек

    Каналы : 2 канала

    Расположение каналов : Front: L R

    Частота : 48,0 КГц

    Битовая глубина : 16 бит

    Метод сжатия : С потерями

    Размер потока : 16,5 Мбайт (10%)

    Выравнивание : Разделение по промежуткам

    Продолжительность промежутка : 40 мс. (1,00 видеокадр)

    Время предзагрузки промежутка : 500 мс.

    Полное имя : D:\Rycar.Majk.(50.serija).Prostuzhennyj.olen.2012.XviD.SATRip.avi

    Формат/Информация : Audio Video Interleave

    Размер файла : 163 Мбайт

    Продолжительность : 11 м.

    Общий поток : 1902 Кбит/сек

    Режиссёр : Rip by Thunder

    Программа кодирования : VirtualDubMod 1.5.10.3 | www.virtualdub-fr.org || (build 2550/release)

    Формат : MPEG-4 Visual

    Профиль формата : Advanced Simple@L5

    Параметр BVOP формата : 2

    Параметр QPel формата : Нет

    Параметр GMC формата : Без точки перехода

    Параметр матрицы формата : Default (H.263)

    Идентификатор кодека : XVID

    Идентификатор кодека/Подсказка : XviD

    Продолжительность : 11 м.

    Битрейт : 1700 Кбит/сек

    Ширина : 720 пикселей

    Высота : 400 пикселей

    Соотношение сторон : 16:9

    Частота кадров : 25,000 кадров/сек

    Цветовое пространство : YUV

    Субдискретизация насыщенности : 4:2:0

    Битовая глубина : 8 бит

    Тип развёртки : Прогрессивная

    Метод сжатия : С потерями

    Размер потока : 146 Мбайт (89%)

    Библиотека кодирования : XviD 1.2.1 (UTC 2008-12-04)

    Формат/Информация : Audio Coding 3

    Расширение режима : CM (complete main)

    Идентификатор кодека : 2000

    Продолжительность : 11 м.

    Вид битрейта : Постоянный

    Битрейт : 192 Кбит/сек

    Каналы : 2 канала

    Расположение каналов : Front: L R

    Частота : 48,0 КГц

    Битовая глубина : 16 бит

    Метод сжатия : С потерями

    Размер потока : 16,5 Мбайт (10%)

    Выравнивание : Разделение по промежуткам

    Продолжительность промежутка : 40 мс. (1,00 видеокадр)

    Время предзагрузки промежутка : 500 мс.

    Полное имя : D:\Rycar.Majk.(51.serija).Letajushhie.sobaki.2012.XviD.SATRip.avi

    Формат/Информация : Audio Video Interleave

    Размер файла : 163 Мбайт

    Продолжительность : 11 м.

    Общий поток : 1902 Кбит/сек

    Режиссёр : Rip by Thunder

    Программа кодирования : VirtualDubMod 1.5.10.3 | www.virtualdub-fr.org || (build 2550/release)

    Формат : MPEG-4 Visual

    Профиль формата : Advanced Simple@L5

    Параметр BVOP формата : 2

    Параметр QPel формата : Нет

    Параметр GMC формата : Без точки перехода

    Параметр матрицы формата : Default (H.263)

    Идентификатор кодека : XVID

    Идентификатор кодека/Подсказка : XviD

    Продолжительность : 11 м.

    Битрейт : 1700 Кбит/сек

    Ширина : 720 пикселей

    Высота : 400 пикселей

    Соотношение сторон : 16:9

    Частота кадров : 25,000 кадров/сек

    Цветовое пространство : YUV

    Субдискретизация насыщенности : 4:2:0

    Битовая глубина : 8 бит

    Тип развёртки : Прогрессивная

    Метод сжатия : С потерями

    Размер потока : 146 Мбайт (89%)

    Библиотека кодирования : XviD 1.2.1 (UTC 2008-12-04)

    Формат/Информация : Audio Coding 3

    Расширение режима : CM (complete main)

    Идентификатор кодека : 2000

    Продолжительность : 11 м.

    Вид битрейта : Постоянный

    Битрейт : 192 Кбит/сек

    Каналы : 2 канала

    Расположение каналов : Front: L R

    Частота : 48,0 КГц

    Битовая глубина : 16 бит

    Метод сжатия : С потерями

    Размер потока : 16,5 Мбайт (10%)

    Выравнивание : Разделение по промежуткам

    Продолжительность промежутка : 40 мс. (1,00 видеокадр)

    Время предзагрузки промежутка : 500 мс.

    Полное имя : D:\Rycar.Majk.(52.serija).Ochen.vazhnyj.gost.2012.XviD.SATRip.avi

    Формат/Информация : Audio Video Interleave

    Размер файла : 163 Мбайт

    Продолжительность : 11 м.

    Общий поток : 1902 Кбит/сек

    Режиссёр : Rip by Thunder

    Программа кодирования : VirtualDubMod 1.5.10.3 | www.virtualdub-fr.org || (build 2550/release)

    Формат : MPEG-4 Visual

    Профиль формата : Advanced Simple@L5

    Параметр BVOP формата : 2

    Параметр QPel формата : Нет

    Параметр GMC формата : Без точки перехода

    Параметр матрицы формата : Default (H.263)

    Идентификатор кодека : XVID

    Идентификатор кодека/Подсказка : XviD

    Продолжительность : 11 м.

    Битрейт : 1700 Кбит/сек

    Ширина : 720 пикселей

    Высота : 400 пикселей

    Соотношение сторон : 16:9

    Частота кадров : 25,000 кадров/сек

    Цветовое пространство : YUV

    Субдискретизация насыщенности : 4:2:0

    Битовая глубина : 8 бит

    Тип развёртки : Прогрессивная

    Метод сжатия : С потерями

    Размер потока : 146 Мбайт (89%)

    Библиотека кодирования : XviD 1.2.1 (UTC 2008-12-04)

    Формат/Информация : Audio Coding 3

    Расширение режима : CM (complete main)

    Идентификатор кодека : 2000

    Продолжительность : 11 м.

    Вид битрейта : Постоянный

    Битрейт : 192 Кбит/сек

    Каналы : 2 канала

    Расположение каналов : Front: L R

    Частота : 48,0 КГц

    Битовая глубина : 16 бит

    Метод сжатия : С потерями

    Размер потока : 16,5 Мбайт (10%)

    Выравнивание : Разделение по промежуткам

    Продолжительность промежутка : 40 мс. (1,00 видеокадр)