File-Portal

Скачать Клипы Кобяков Торрент Скачать

Рейтинг: 4.4/5.0 (146 проголосовавших)

Категория: Торрент-файлы

Описание

Скачать торрент Аркадий Кобяков - Сборник клипов (2014)

Скачать Аркадий Кобяков - Сборник клипов / [2014-2015, Shanson, Pop, WEBRip 720p] - торрент

Нажмите на синюю кнопку, чтобы скачать через торрент бесплатно.

Скачать клипы кобяков торрент скачатьФормат: WEBRip, MP4, H.264, AAC

Песня: Сборник клипов

1 606 kbps avg, 0.073 bit/pixel

Аудио: 44,1KHz, AAC-LC, 2ch,

02. Мерцание звёзд

03. Некуда бежать

06. Я лишь прохожий

07. Если любишь ты

Complete name : E:\DOWNLOADS\Аркадий КОБЯКОВ - Видеоклипы\01. Аркадий КОБЯКОВ - Всё позади.mp4

Format profile : Base Media / Version 2

File size : 42.9 MiB

Duration : 3mn 19s

Overall bit rate mode : Variable

Overall bit rate : 1 800 Kbps

Encoded date : UTC 2015-05-17 03:35:19

Tagged date : UTC 2015-05-17 03:35:19

Format/Info : Advanced Video Codec

Format profile : High@L3.1

Format settings, CABAC : Yes

Format settings, ReFrames : 1 frame

Codec ID/Info : Advanced Video Coding

Duration : 3mn 19s

Bit rate : 1 606 Kbps

Maximum bit rate : 2 601 Kbps

Width : 1 280 pixels

Height : 720 pixels

Display aspect ratio : 16:9

Frame rate mode : Constant

Frame rate : 23.976 fps

Color space : YUV

Chroma subsampling : 4:2:0

Bit depth : 8 bits

Scan type : Progressive

Stream size : 38.2 MiB (89%)

Tagged date : UTC 2015-05-17 03:35:23

Format/Info : Advanced Audio Codec

Format profile : LC

Duration : 3mn 19s

Bit rate mode : Variable

Bit rate : 192 Kbps

Maximum bit rate : 202 Kbps

Channel(s) : 2 channels

Channel positions : Front: L R

Sampling rate : 44.1 KHz

Compression mode : Lossy

Stream size : 4.57 MiB (11%)

Title : IsoMedia File Produced by Google, 5-11-2011

Encoded date : UTC 2015-05-17 03:35:20

Tagged date : UTC 2015-05-17 03:35:23

Скачать клипы кобяков торрент скачать

Скачать клипы кобяков торрент скачать

Скачать клипы кобяков торрент скачать

Скачать клипы кобяков торрент скачать

Информация о торренте:

Скачан: 7265 раз

Статус: Проверен Зарегистрирован на трекере: 2015-07-07 10:19

скачать клипы кобяков торрент скачать:

  • скачать
  • скачать
  • Другие статьи

    Аркадий Кобяков - Помним (2016) Сборник MP3 скачать торрентом

    Сборник Аркадий Кобяков - Помним (2016) () скачать торрент

    Формат | Качество: MP3 | 320 Kbps

    Количество треков: 69

    Время звучания: 05:30:21

    Сборник весит: 758.3 MB

    02. А над лагерями ночь ( Версия 2 )

    06. Половинка (rework mix by kriss )

    07. Загляди мне в душу ( feat Григорий Герасимов )

    08. Я брошу мир к твоим ногам

    09. Уйду на рассвете

    11. Больно (DJ kriss rework sound )

    13. Тысячи планет

    14. Прочь (Dj kriss rework sound )

    15. А с неба дождь

    16. Больно (feat Денис Иккерт )

    19. Ты одна стоишь и Парапета

    20. Арестантская душа

    21. Ах ,если бы знать! (feat Александр Курган )

    22. И ты услишишь

    23. Остановить время

    24. Прощай мой друг

    25. А над лагерем ночь remix (Dj kriss rework sound )

    26. Такси ( feat Saty Jay )

    28. Ветерок (REWORKK. SOUND)

    29. Мы встретились с тобой

    30. Журавли ( feat Вячеслав Анисимов )

    31. Все позади (Rework mix by kriss )

    33. Соловьи ( Dj kriss rework sound )

    36. Малыш (Dj kriss l rework mix )

    38. Я не забуду (DJ K.SOUND ReWork )

    41. Арестанская душа (Dj kriss rework sound )

    42. Было или нет

    43. Лети (Rework mix by kriss )

    45. А у девченок ветерок

    46. Мрак и холод

    47. Некуда бежать

    49. Лягушка (Rework mix by kriss)

    50. Жить пытались

    52. Здравствуй, мам

    53. Судьбе назло

    55. Танцевальный mix 2016 ( rework mix dj kriss )

    01. Сергей Сухачев - Ты ушел

    02. Вячеслав Анисимов - Любовь моя как лебедь белая

    03. Азамат Исенгазин - А над лагерем ночь

    04. Евгений Мальцев - Тысячи планет

    05. Руслан Исаков - Моя усталость (Памяти Аркадия Кобякова)

    06. Андрей Забродин - Лягушка

    07. Казан Казиев - Журавли

    08. Азамат Исенгазин - Больно

    09. Вадим Диулин - Все позади

    10. Вячеслав Анисимов - Я брошу мир к твоим ногам

    11. Вадим Диулин - Ты где-то там нас ждешь (Посвящается Аркадию Кобякову)

    Аркадий Кобяков - Дискография (2002-2015) mp3 скачать через торрент бесплатно

    Аркадий Кобяков - Дискография (2002-2015) mp3

    Добавлено: 01 окт 2015, 00:12

    • Скачать клипы кобяков торрент скачать

    Исполнитель: Аркадий Кобяков

    Подари мне звезды

    Ты слышишь меня

    Сердце не обманешь

    Тебя больше нет

    Прощай, поверь, прости

    Прощай мой друг

    А над лагерем ночь

    Сегодня я другой

    А мне уже не привыкать

    А над лагерем ночь

    Ах если б знать

    Ну что ж прощай

    Я тебя уже не слышу

    А над лагерем ночь

    Унесите меня журавли

    Прощение мне нет

    Мы встретились с тобой

    Над рекой облака

    Над зоной журавли

    Больно (новая версия)

    Ах если бы знать (новая версия)

    Шалава (новая версия)

    Моя душа (новая версия)

    А над лагерем ночь (новая версия)

    Любовь моя, как лебедь белая

    А над лагерем ночь

    Девчонка у реки

    Ой, Мороз, Мороз. У дяди Славы

    Девчонка у реки

    Я лишь прохожий

    Уйду на рассвете

    Я лишь прохожий

    Девчонка у реки

    "Друзья, родные спасибо Вам за поддержку и теплые слова в адрес нашего любимого и дорогого артиста Аркадия Кобякова. Его песни будут жить в наших сердцах и наших душах. Сообщаю, похороны пройдут на родине Аркадия в Нижнем Новгороде. Официально сообщаю, кто хочет оказать помощь в проводах в последний путь нашего дорогого и любимого артиста сбор средств осуществляют только Юрий Чехов, Любовь Головкина и Маргарита Загинайло-Батурина".

    Скачать Аркадий Кобяков - Сборник видеоклипов (2014) WEBRip

    Аркадий Кобяков - Сборник видеоклипов (2014) WEBRip [H.264/720p]

    Стаж: 3 года 2 месяца

    Скачать клипы кобяков торрент скачать

    16-Авг-2015 00:49

    Скачать клипы кобяков торрент скачать

    Жанр: Музыка, клипы

    02. Мерцание звёзд

    03. Некуда бежать

    06. Я лишь прохожий

    07. Если любишь ты

    Качество видео: WEBRip

    Видео: MPEG-4/AVC/H.264, 1280x720 (16:9), 23.976 fps,

    1606 kbps avg, 0.073 bit/pixel

    Аудио: AAC, 2 ch, 192 kbps, CBR

    Mediainfo:

    Полное имя : \Аркадий КОБЯКОВ - Видеоклипы\01. Аркадий КОБЯКОВ - Всё позади.mp4

    Профиль формата : Base Media / Version 2

    Идентификатор кодека : mp42

    Размер файла : 42,9 Мбайт

    Продолжительность : 3 м. 19 с.

    Режим общего битрейта : Переменный

    Общий поток : 1800 Кбит/сек

    Дата кодирования : UTC 2015-05-17 03:35:19

    Дата пометки : UTC 2015-05-17 03:35:19

    Формат/Информация : Advanced Video Codec

    Параметр CABAC формата : Да

    Параметр ReFrames формата : 1 кадр

    Идентификатор кодека : avc1

    Идентификатор кодека/Информация : Advanced Video Coding

    Продолжительность : 3 м. 19 с.

    Битрейт : 1606 Кбит/сек

    Максимальный битрейт : 2601 Кбит/сек

    Ширина : 1280 пикселей

    Высота : 720 пикселей

    Соотношение сторон : 16:9

    Режим частоты кадров : Постоянный

    Частота кадров : 23,976 кадра/сек

    Цветовое пространство : YUV

    Субдискретизация насыщенности : 4:2:0

    Битовая глубина : 8 бит

    Тип развёртки : Прогрессивная

    Размер потока : 38,2 Мбайт (89%)

    Дата пометки : UTC 2015-05-17 03:35:23

    Формат/Информация : Advanced Audio Codec

    Профиль формата : LC

    Идентификатор кодека : 40

    Продолжительность : 3 м. 19 с.

    Вид битрейта : Переменный

    Битрейт : 192 Кбит/сек

    Максимальный битрейт : 202 Кбит/сек

    Каналы : 2 канала

    Расположение каналов : Front: L R

    Частота : 44,1 КГц

    Метод сжатия : С потерями

    Размер потока : 4,57 Мбайт (11%)

    Заголовок : IsoMedia File Produced by Google, 5-11-2011

    Дата кодирования : UTC 2015-05-17 03:35:20

    Дата пометки : UTC 2015-05-17 03:35:23

    Полное имя : \Аркадий КОБЯКОВ - Видеоклипы\02. Аркадий КОБЯКОВ - Мерцание звёзд.mp4

    Профиль формата : Base Media / Version 2

    Идентификатор кодека : mp42

    Размер файла : 49,5 Мбайт

    Продолжительность : 3 м. 50 с.

    Режим общего битрейта : Переменный

    Общий поток : 1801 Кбит/сек

    Дата кодирования : UTC 2014-12-30 17:03:46

    Дата пометки : UTC 2014-12-30 17:03:46

    Формат/Информация : Advanced Video Codec

    Параметр CABAC формата : Да

    Параметр ReFrames формата : 1 кадр

    Идентификатор кодека : avc1

    Идентификатор кодека/Информация : Advanced Video Coding

    Продолжительность : 3 м. 50 с.

    Битрейт : 1607 Кбит/сек

    Максимальный битрейт : 8732 Кбит/сек

    Ширина : 1280 пикселей

    Высота : 720 пикселей

    Соотношение сторон : 16:9

    Режим частоты кадров : Постоянный

    Частота кадров : 25,000 кадров/сек

    Цветовое пространство : YUV

    Субдискретизация насыщенности : 4:2:0

    Битовая глубина : 8 бит

    Тип развёртки : Прогрессивная

    Размер потока : 44,2 Мбайт (89%)

    Дата пометки : UTC 2014-12-30 17:03:47

    Формат/Информация : Advanced Audio Codec

    Профиль формата : LC

    Идентификатор кодека : 40

    Продолжительность : 3 м. 50 с.

    Вид битрейта : Переменный

    Битрейт : 192 Кбит/сек

    Максимальный битрейт : 205 Кбит/сек

    Каналы : 2 канала

    Расположение каналов : Front: L R

    Частота : 44,1 КГц

    Метод сжатия : С потерями

    Размер потока : 5,28 Мбайт (11%)

    Заголовок : IsoMedia File Produced by Google, 5-11-2011

    Дата кодирования : UTC 2014-12-30 17:03:47

    Дата пометки : UTC 2014-12-30 17:03:47

    Полное имя : \Аркадий КОБЯКОВ - Видеоклипы\03. Аркадий КОБЯКОВ - Некуда бежать.mp4

    Профиль формата : Base Media / Version 2

    Идентификатор кодека : mp42

    Размер файла : 28,9 Мбайт

    Продолжительность : 3 м. 18 с.

    Режим общего битрейта : Переменный

    Общий поток : 1220 Кбит/сек

    Дата кодирования : UTC 2015-04-03 07:14:24

    Дата пометки : UTC 2015-04-03 07:14:24

    Формат/Информация : Advanced Video Codec

    Параметр CABAC формата : Да

    Параметр ReFrames формата : 1 кадр

    Параметр GOP формата : M=1, N=60

    Идентификатор кодека : avc1

    Идентификатор кодека/Информация : Advanced Video Coding

    Продолжительность : 3 м. 18 с.

    Битрейт : 1026 Кбит/сек

    Максимальный битрейт : 1941 Кбит/сек

    Ширина : 1280 пикселей

    Высота : 720 пикселей

    Соотношение сторон : 16:9

    Режим частоты кадров : Постоянный

    Частота кадров : 23,976 кадра/сек

    Цветовое пространство : YUV

    Субдискретизация насыщенности : 4:2:0

    Битовая глубина : 8 бит

    Тип развёртки : Прогрессивная

    Размер потока : 24,3 Мбайт (84%)

    Дата пометки : UTC 2015-04-03 07:14:25

    Формат/Информация : Advanced Audio Codec

    Профиль формата : LC

    Идентификатор кодека : 40

    Продолжительность : 3 м. 18 с.

    Вид битрейта : Переменный

    Битрейт : 192 Кбит/сек

    Максимальный битрейт : 204 Кбит/сек

    Каналы : 2 канала

    Расположение каналов : Front: L R

    Частота : 44,1 КГц

    Метод сжатия : С потерями

    Размер потока : 4,54 Мбайт (16%)

    Заголовок : IsoMedia File Produced by Google, 5-11-2011

    Дата кодирования : UTC 2015-04-03 07:14:25

    Дата пометки : UTC 2015-04-03 07:14:25

    Полное имя : \Аркадий КОБЯКОВ - Видеоклипы\04. Аркадий КОБЯКОВ - Я не забуду.mp4

    Профиль формата : Base Media / Version 2

    Идентификатор кодека : mp42

    Размер файла : 42,2 Мбайт

    Продолжительность : 4 м. 40 с.

    Режим общего битрейта : Переменный

    Общий поток : 1262 Кбит/сек

    Дата кодирования : UTC 2015-04-21 06:17:28

    Дата пометки : UTC 2015-04-21 06:17:28

    Формат/Информация : Advanced Video Codec

    Параметр CABAC формата : Да

    Параметр ReFrames формата : 1 кадр

    Идентификатор кодека : avc1

    Идентификатор кодека/Информация : Advanced Video Coding

    Продолжительность : 4 м. 40 с.

    Битрейт : 1068 Кбит/сек

    Максимальный битрейт : 2503 Кбит/сек

    Ширина : 1280 пикселей

    Высота : 720 пикселей

    Соотношение сторон : 16:9

    Режим частоты кадров : Постоянный

    Частота кадров : 24,000 кадра/сек

    Цветовое пространство : YUV

    Субдискретизация насыщенности : 4:2:0

    Битовая глубина : 8 бит

    Тип развёртки : Прогрессивная

    Размер потока : 35,7 Мбайт (85%)

    Дата пометки : UTC 2015-04-21 06:17:43

    Формат/Информация : Advanced Audio Codec

    Профиль формата : LC

    Идентификатор кодека : 40

    Продолжительность : 4 м. 40 с.

    Вид битрейта : Переменный

    Битрейт : 192 Кбит/сек

    Максимальный битрейт : 203 Кбит/сек

    Каналы : 2 канала

    Расположение каналов : Front: L R

    Частота : 44,1 КГц

    Метод сжатия : С потерями

    Размер потока : 6,42 Мбайт (15%)

    Заголовок : IsoMedia File Produced by Google, 5-11-2011

    Дата кодирования : UTC 2015-04-21 06:17:41

    Дата пометки : UTC 2015-04-21 06:17:43

    Полное имя : \Аркадий КОБЯКОВ - Видеоклипы\05. Аркадий КОБЯКОВ - Ветерок.mp4

    Профиль формата : Base Media / Version 2

    Идентификатор кодека : mp42

    Размер файла : 80,1 Мбайт

    Продолжительность : 3 м. 51 с.

    Режим общего битрейта : Переменный

    Общий поток : 2898 Кбит/сек

    Дата кодирования : UTC 2015-03-25 11:46:56

    Дата пометки : UTC 2015-03-25 11:46:56

    Формат/Информация : Advanced Video Codec

    Параметр CABAC формата : Да

    Параметр ReFrames формата : 1 кадр

    Идентификатор кодека : avc1

    Идентификатор кодека/Информация : Advanced Video Coding

    Продолжительность : 3 м. 51 с.

    Битрейт : 2704 Кбит/сек

    Максимальный битрейт : 4703 Кбит/сек

    Ширина : 1280 пикселей

    Высота : 720 пикселей

    Соотношение сторон : 16:9

    Режим частоты кадров : Постоянный

    Частота кадров : 29,970 кадров/сек

    Цветовое пространство : YUV

    Субдискретизация насыщенности : 4:2:0

    Битовая глубина : 8 бит

    Тип развёртки : Прогрессивная

    Размер потока : 74,7 Мбайт (93%)

    Дата пометки : UTC 2015-03-25 11:46:59

    Формат/Информация : Advanced Audio Codec

    Профиль формата : LC

    Идентификатор кодека : 40

    Продолжительность : 3 м. 51 с.

    Вид битрейта : Переменный

    Битрейт : 192 Кбит/сек

    Максимальный битрейт : 204 Кбит/сек

    Каналы : 2 канала

    Расположение каналов : Front: L R

    Частота : 44,1 КГц

    Метод сжатия : С потерями

    Размер потока : 5,31 Мбайт (7%)

    Заголовок : IsoMedia File Produced by Google, 5-11-2011

    Дата кодирования : UTC 2015-03-25 11:46:58

    Дата пометки : UTC 2015-03-25 11:46:59

    Полное имя : \Аркадий КОБЯКОВ - Видеоклипы\06. Аркадий КОБЯКОВ - Я лишь прохожий.mp4

    Профиль формата : Base Media / Version 2

    Идентификатор кодека : mp42

    Размер файла : 62,4 Мбайт

    Продолжительность : 4 м. 12 с.

    Режим общего битрейта : Переменный

    Общий поток : 2069 Кбит/сек

    Дата кодирования : UTC 2015-05-17 08:49:52

    Дата пометки : UTC 2015-05-17 08:49:52

    Формат/Информация : Advanced Video Codec

    Параметр CABAC формата : Да

    Параметр ReFrames формата : 1 кадр

    Идентификатор кодека : avc1

    Идентификатор кодека/Информация : Advanced Video Coding

    Продолжительность : 4 м. 12 с.

    Битрейт : 1874 Кбит/сек

    Максимальный битрейт : 5543 Кбит/сек

    Ширина : 1280 пикселей

    Высота : 720 пикселей

    Соотношение сторон : 16:9

    Режим частоты кадров : Постоянный

    Частота кадров : 23,976 кадра/сек

    Цветовое пространство : YUV

    Субдискретизация насыщенности : 4:2:0

    Битовая глубина : 8 бит

    Тип развёртки : Прогрессивная

    Размер потока : 56,5 Мбайт (91%)

    Дата пометки : UTC 2015-05-17 08:49:53

    Формат/Информация : Advanced Audio Codec

    Профиль формата : LC

    Идентификатор кодека : 40

    Продолжительность : 4 м. 12 с.

    Вид битрейта : Переменный

    Битрейт : 192 Кбит/сек

    Максимальный битрейт : 203 Кбит/сек

    Каналы : 2 канала

    Расположение каналов : Front: L R

    Частота : 44,1 КГц

    Метод сжатия : С потерями

    Размер потока : 5,79 Мбайт (9%)

    Заголовок : IsoMedia File Produced by Google, 5-11-2011

    Дата кодирования : UTC 2015-05-17 08:49:53

    Дата пометки : UTC 2015-05-17 08:49:53

    Полное имя : \Аркадий КОБЯКОВ - Видеоклипы\07. Аркадий КОБЯКОВ - Если любишь ты.mp4

    Профиль формата : Base Media / Version 2

    Идентификатор кодека : mp42

    Размер файла : 71,0 Мбайт

    Продолжительность : 7 м. 5 с.

    Режим общего битрейта : Переменный

    Общий поток : 1402 Кбит/сек

    Дата кодирования : UTC 2015-05-24 10:09:12

    Дата пометки : UTC 2015-05-24 10:09:12

    Формат/Информация : Advanced Video Codec

    Параметр CABAC формата : Да

    Параметр ReFrames формата : 1 кадр

    Параметр GOP формата : M=1, N=60

    Идентификатор кодека : avc1

    Идентификатор кодека/Информация : Advanced Video Coding

    Продолжительность : 7 м. 5 с.

    Битрейт : 1207 Кбит/сек

    Максимальный битрейт : 2392 Кбит/сек

    Ширина : 1280 пикселей

    Высота : 720 пикселей

    Соотношение сторон : 16:9

    Режим частоты кадров : Постоянный

    Частота кадров : 23,976 кадра/сек

    Цветовое пространство : YUV

    Субдискретизация насыщенности : 4:2:0

    Битовая глубина : 8 бит

    Тип развёртки : Прогрессивная

    Размер потока : 61,2 Мбайт (86%)

    Дата пометки : UTC 2015-05-24 10:09:15

    Формат/Информация : Advanced Audio Codec

    Профиль формата : LC

    Идентификатор кодека : 40

    Продолжительность : 7 м. 5 с.

    Вид битрейта : Переменный

    Битрейт : 192 Кбит/сек

    Максимальный битрейт : 204 Кбит/сек

    Каналы : 2 канала

    Расположение каналов : Front: L R

    Частота : 44,1 КГц

    Метод сжатия : С потерями

    Размер потока : 9,73 Мбайт (14%)

    Заголовок : IsoMedia File Produced by Google, 5-11-2011

    Дата кодирования : UTC 2015-05-24 10:09:14

    Дата пометки : UTC 2015-05-24 10:09:15

    Скачать клипы кобяков торрент скачать Скачать клипы кобяков торрент скачать Скачать клипы кобяков торрент скачать Скачать клипы кобяков торрент скачать Время раздачи: 24/7 до 5 скачавших

    Текущее время: Сегодня 04:14

    Часовой пояс: GMT + 4

    Вы не можете отвечать на сообщения

    Вы не можете редактировать свои сообщения

    Вы не можете удалять свои сообщения

    Вы не можете голосовать в опросах

    Вы не можете прикреплять файлы к сообщениям

    Вы можете скачивать файлы

    Search Powered by Sphinx

    Powered by TorrentPier II © Meithar, TorrentPier II Team

    Музыкальный Сборник Аркадий Кобяков - Помним (2016) MP3 скачать торрент

    Сборник Аркадий Кобяков - Помним (2016) () скачать торрент

    Формат | Качество: MP3 | 320 Kbps

    Количество треков: 69

    Время звучания: 05:30:21

    Размер архива: 758.3 MB (cкачиваний: 498)

    02. А над лагерями ночь ( Версия 2 )

    06. Половинка (rework mix by kriss )

    07. Загляди мне в душу ( feat Григорий Герасимов )

    08. Я брошу мир к твоим ногам

    09. Уйду на рассвете

    11. Больно (DJ kriss rework sound )

    13. Тысячи планет

    14. Прочь (Dj kriss rework sound )

    15. А с неба дождь

    16. Больно (feat Денис Иккерт )

    19. Ты одна стоишь и Парапета

    20. Арестантская душа

    21. Ах ,если бы знать! (feat Александр Курган )

    22. И ты услишишь

    23. Остановить время

    24. Прощай мой друг

    25. А над лагерем ночь remix (Dj kriss rework sound )

    26. Такси ( feat Saty Jay )

    28. Ветерок (REWORKK. SOUND)

    29. Мы встретились с тобой

    30. Журавли ( feat Вячеслав Анисимов )

    31. Все позади (Rework mix by kriss )

    33. Соловьи ( Dj kriss rework sound )

    36. Малыш (Dj kriss l rework mix )

    38. Я не забуду (DJ K.SOUND ReWork )

    41. Арестанская душа (Dj kriss rework sound )

    42. Было или нет

    43. Лети (Rework mix by kriss )

    45. А у девченок ветерок

    46. Мрак и холод

    47. Некуда бежать

    49. Лягушка (Rework mix by kriss)

    50. Жить пытались

    52. Здравствуй, мам

    53. Судьбе назло

    55. Танцевальный mix 2016 ( rework mix dj kriss )

    01. Сергей Сухачев - Ты ушел

    02. Вячеслав Анисимов - Любовь моя как лебедь белая

    03. Азамат Исенгазин - А над лагерем ночь

    04. Евгений Мальцев - Тысячи планет

    05. Руслан Исаков - Моя усталость (Памяти Аркадия Кобякова)

    06. Андрей Забродин - Лягушка

    07. Казан Казиев - Журавли

    08. Азамат Исенгазин - Больно

    09. Вадим Диулин - Все позади

    10. Вячеслав Анисимов - Я брошу мир к твоим ногам

    11. Вадим Диулин - Ты где-то там нас ждешь (Посвящается Аркадию Кобякову)

    12. Денис Иккерт - А над лагерем ночь

    13. Григорий Герасимов - Ты ушел в небеса

    Уважемый меломан! Если у Вас возникли вопросы, трудности, Вы впервые используете торрент и не знаете, как скачать Сборник Аркадий Кобяков - Помним (2016), то рекомендуем Вам ознакомиться с простой и наглядной инструкцией о том - как скачивать через торрент на Андроид.

    Если торрент-файл недоступен, или уже "устарел" (нет раздающих), или у Вас есть вопросы/предложения по содержанию и оформлению представленного на этой странице материала, то просто заполните эту форму