File-Portal

любовь моя скачать торрент

Рейтинг: 4.2/5.0 (490 проголосовавших)

Категория: Торрент-файлы

Описание

Любовь моя

Торрент трекер TORRANTUL скачать через торрент

Скачать через торрент бесплатно и без регистрации

Любовь моя

Любовь моя / Monamour

Перевод: Профессиональный (двухголосый), cубтитры: отсутствуют

Формат: DVDRip, AVI, XviD, AC3

Режиссер: Тинто Брасс

Год выпуска: 2005

В ролях: Анна Жимская, Риккардо Марино, Марио Пароди, Нела Лучич, Вирджиния Бэррет, Лео Мантовани, Массимо Карадонна, Федерико Чезарео, Маттео Андреотти

Описание: Это история любви девушки из Венеции по имени Марта и француза Леона. Всего пять дней длится роман между Мартой и Леоном и их чувства с каждым днем становясь все сильнее. Но у Марты есть муж, который догадывается об увлечении своей жены…

Рейтинг IMDB: 5.6/10

Рейтинг Кинопоиск.RU: 6.281

Видео: 720x400 (1.80:1), 23.976 fps, XviD build 47

1720 kbps avg, 0.25 bit/pixel

Аудио: 48 kHz, AC3 Dolby Digital, 3/2 (L,C,R,l,r) + LFE ch,

любовь моя скачать торрент:

  • скачать
  • скачать
  • Другие статьи

    Скачать торрент Любовь моя

    Скачать Любовь моя / Monamour (Тинто Брасс) [2005, эротика, драма, Blu-ray 1080p] MVO - торрент

    Скачать через торрент бесплатно.

    Любовь моя скачать торрентПеревод: Профессиональный (многоголосый, закадровый)

    Субтитры: русские, английские

    Формат: Blu-ray, BDMV, H.264, AC3

    Режиссер: Тинто Брасс

    Аудио#: Русский: Dolby Digital Audio / 5.1 / 48 kHz / 384 kbps [Профессиональный (многоголосый, закадровый)]

    Аудио#: Английский: Dolby Digital Audio / 2.0 / 48 kHz / 192 kbps

    Disc Size: 23 511 267 921 bytes

    Size: 19 852 584 960 bytes

    Length: 1:38:19 (h:m:s)

    Total Bitrate: 26,92 Mbps

    MPEG-4 AVC Video 24577 kbps 1080p / 23,976 fps / 16:9 / High Profile 4.1

    Dolby Digital Audio Italian 448 kbps 5.1 / 48 kHz / 448 kbps

    Dolby Digital Audio Russian 384 kbps 5.1 / 48 kHz / 384 kbps

    Dolby Digital Audio English 192 kbps 2.0 / 48 kHz / 192 kbps

    Presentation Graphics English 19,642 kbps

    Presentation Graphics Russian 24,227 kbps

    00001.M2TS 0:00:00.000 1:38:19.894 19 852 584 960 26 919

    Любовь моя скачать торрент

    Любовь моя скачать торрент

    Любовь моя скачать торрент

    Любовь моя скачать торрент

    Любовь моя скачать торрент

    Любовь моя скачать торрент

    Информация о торренте:

    Скачан: 1165 раз

    Статус: Проверен Зарегистрирован на трекере: 2016-12-09 08:11

    Любовь моя

    любовь моя скачать торрент

    • Любовь моя скачать торрент

    Оригинальное название: Monamour

    Жанр: Эротика, драма, экранизация

    В ролях: Анна Жимская, Риккардо Марино, Марио Пароди, Нела Лучич, Вирджиния Бэррет, Лео Мантовани, Массимо Карадонна, Федерико Чезарео, Маттео Андреотти

    Это история любви девушки из Венеции по имени Марта и француза Леона. Всего пять дней длится роман между Мартой и Леоном и их чувства с каждым днем становясь все сильнее. Но у Марты есть муж, который догадывается об увлечении своей жены…

    Перевод: Профессиональный двухголосый

    Видео: MPEG-4 AVC, 1920x1040, 10.2 Мбит/с, 23.976 кадр/с

    Аудио #1: Русский ( AC3, 6ch, 448 Кбит/с, 48.0 KHz) Профессиональный двухголосый

    Аудио #2: Английский (AC3, 2ch, 192 Кбит/с, 48.0 KHz)

    Аудио #3: Итальянский ( AC3, 6ch, 448 Кбит/с, 48.0 KHz)

    Format version : Version 4 / Version 2

    File size : 7.75 GiB

    Duration : 1h 38mn

    Overall bit rate : 11.3 Mbps

    Encoded date : UTC 2015-01-24 17:59:15

    Writing application : mkvmerge v6.9.1 ('Blue Panther') 64bit built on Apr 18 2014 18:23:38

    Writing library : libebml v1.3.0 + libmatroska v1.4.1

    Format/Info : Advanced Video Codec

    Format profile : High@L4.1

    Format settings, CABAC : Yes

    Format settings, ReFrames : 4 frames

    Codec ID : V_MPEG4/ISO/AVC

    Duration : 1h 38mn

    Bit rate : 10.2 Mbps

    Width : 1 920 pixels

    Height : 1 040 pixels

    Display aspect ratio : 1.85:1

    Frame rate mode : Constant

    Frame rate : 23.976 fps

    Color space : YUV

    Chroma subsampling : 4:2:0

    Bit depth : 8 bits

    Scan type : Progressive

    Stream size : 6.85 GiB (88%)

    Writing library : x264 core 125 r2200 999b753

    Encoding settings : cabac=1 / ref=4 / deblock=1:-1:-1 / analyse=0x3:0x113 / me=umh / subme=11 / psy=1 / psy_rd=1.00:0.15 / mixed_ref=1 / me_range=32 / chroma_me=1 / trellis=2 / 8x8dct=1 / cqm=0 / deadzone=21,11 / fast_pskip=1 / chroma_qp_offset=-3 / threads=6 / lookahead_threads=1 / sliced_threads=0 / nr=0 / decimate=1 / interlaced=0 / bluray_compat=0 / constrained_intra=0 / bframes=12 / b_pyramid=2 / b_adapt=2 / b_bias=0 / direct=3 / weightb=1 / open_gop=0 / weightp=2 / keyint=250 / keyint_min=23 / scenecut=40 / intra_refresh=0 / rc_lookahead=50 / rc=abr / mbtree=1 / bitrate=10200 / ratetol=1.0 / qcomp=0.60 / qpmin=0 / qpmax=69 / qpstep=4 / ip_ratio=1.40 / aq=1:1.00

    Format/Info : Audio Coding 3

    Mode extension : CM (complete main)

    Format settings, Endianness : Big

    Codec ID : A_AC3

    Duration : 1h 38mn

    Bit rate mode : Constant

    Bit rate : 448 Kbps

    Channel(s) : 6 channels

    Channel positions : Front: L C R, Side: L R, LFE

    Sampling rate : 48.0 KHz

    Bit depth : 16 bits

    Compression mode : Lossy

    Stream size : 315 MiB (4%)

    Format/Info : Audio Coding 3

    Mode extension : CM (complete main)

    Format settings, Endianness : Big

    Codec ID : A_AC3

    Duration : 1h 38mn

    Bit rate mode : Constant

    Bit rate : 192 Kbps

    Channel(s) : 2 channels

    Channel positions : Front: L R

    Sampling rate : 48.0 KHz

    Bit depth : 16 bits

    Compression mode : Lossy

    Stream size : 135 MiB (2%)

    Format/Info : Audio Coding 3

    Mode extension : CM (complete main)

    Format settings, Endianness : Big

    Codec ID : A_AC3

    Duration : 1h 38mn

    Bit rate mode : Constant

    Bit rate : 448 Kbps

    Channel(s) : 6 channels

    Channel positions : Front: L C R, Side: L R, LFE

    Sampling rate : 48.0 KHz

    Bit depth : 16 bits

    Compression mode : Lossy

    Stream size : 315 MiB (4%)

    Muxing mode : zlib

    Codec ID : S_HDMV/PGS

    Codec ID/Info : The same subtitle format used on BDs/HD-DVDs

    Muxing mode : zlib

    Codec ID : S_HDMV/PGS

    Codec ID/Info : The same subtitle format used on BDs/HD-DVDs

    Любовь моя

    Любовь моя / Monamour (Тинто Брасс) [2005, эротика, драма, HQRip] - скачать торрент

    Любовь моя скачать торрент

    Поблагодарили: 0 раз

    Добавлено: 03 окт 2013

    Любовь моя скачать торрент

    В ролях: Анна Жимская (Marta), Риккардо Марино (Leon), Марио Пароди (Dario), Нела Лучич (Sylvia), Lucia Lucchesino, Вирджиния Бэррет (Singer at Restaurant), Лео Мантовани, Массимо Карадонна, Федерико Чезарео, Маттео Андреотти, Mario Gagliardotto, Silvio Marsaglia Описание: Это история любви девушки из Венеции по имени Марта и француза Леона. Всего пять дней длится роман между Мартой и Леоном и их чувства с каждым днем становясь все сильнее. Но у Марты есть муж, который догадывается об увлечении своей жены Рейтинг

    Видео: XviD; 720x384 (1.875); 2129 Kbps; 23,976 fps; 0,321 bpp

    Аудио №1: 48 kHz; AC3; 384 Kbps; CBR; 6 ch - Russian

    Аудио №2: 48 kHz; AC3; 448 Kbps; CBR; 6 ch - English

    Аудио №3: 48 kHz; AC3; 192 Kbps; CBR; 2 ch - Italian

    Cубтитры: русские, английские [внешние]

    Скачать Любовь моя через торрент в хорошем качестве скачать фильм Любовь моя 2006 торрент

    Любовь моя через торрент

    Любовь моя скачать торрентЛюбовь моя скачать торрент

    Описание фильма Любовь моя Любовь моя трейлер Скачать Любовь моя через торрент в хорошем качестве

    Аудио: Русский (AAC, 2 ch, 189 Кбит/с)

    Любовь моя скачать торрент Любовь моя скачать торрент

    Аудио: 48kHz, 128 kbps

    Любовь моя скачать торрент Любовь моя скачать торрент

    Аудио: 6ch, 384 кб/с

    Любовь моя скачать торрент Любовь моя скачать торрент

    Аудио: 48 kHz, 6ch, 384 Kbps

    Любовь моя скачать торрент Любовь моя скачать торрент

    Аудио: 48 kHz, AC3 Dolby Digital, 3/2 (L,C,R,l,r) + LFE ch, 384 kbps avg |MVO|

    Любовь моя скачать торрент Любовь моя скачать торрент

    Аудио: 6ch, 384 Кб/сек

    Любовь моя скачать торрент Любовь моя скачать торрент

    Аудио: Аудио 1: 48 kHz, AC3 Dolby Digital, 6 ch,

    384.00 kbps (Русский)

    Любовь моя скачать торрент Любовь моя скачать торрент

    Аудио: Audio: Russian: AC3, 384 kb/s (6 ch)Audio: Italian: AC3, 128 kb/s (2 ch)

    Любовь моя скачать торрент Любовь моя скачать торрент

    Аудио: Audio: Russian: AC3, 384 kb/s (6 ch)Audio: Italian: AC3, 448 kb/s (6 ch)

    Любовь моя скачать торрент Любовь моя скачать торрент

    Аудио: Аудио1: Итальянский (AC3, 6 ch, 448 Кбит/с),

    Аудио2: русский (AC3, 6 ch, 384 Кбит/c),

    Аудио3: английский (AC3, 2 ch, 192 Кбит/с)