File-Portal

скачать торрент дискография Fish

Рейтинг: 4.9/5.0 (381 проголосовавших)

Категория: Торрент-файлы

Описание

Plush Fish

Plush Fish - Дискография

Magnet-ссылка (альтернативная ссылка для скачивания файла)

Скачать торрент дискография fish

02. Одна на двоих - Неконтакт [00:02:36]

03. Одна на двоих - На коленях у тебя [00:01:52]

04. Одна на двоих - Калифорния [00:01:50]

05. Одна на двоих - Я не дарил тебе цветы [00:02:02]

06. Одна на двоих - Космос далеко [00:02:47]

07. Plush Fish - Метро [00:03:13]

08. Plush Fish - Моя девушка [00:02:39]

09. Plush Fish - Одежда [00:03:21]

10. Plush Fish - Медленные танцы [00:01:11]

11. Plush Fish - Каждый новый день с тобой [00:01:45]

12. Plush Fish - Моя доска [00:02:18]

13. Plush Fish - Скейтеры [00:01:41]

02. Друзья [00:02:33]

03. Доска [00:02:18]

05. One Girl In The World [00:03:23]

06. Обними Меня [00:00:53]

07. Party Is Over [00:01:59]

08. С Добрым Утром Бейби [00:01:40]

09. Подружка [00:02:49]

10. Иногда Я Чувствую Себя Счастливым [00:02:56]

11. Скажи Бутылке Нет [00:02:14]

12. Скейтер [00:02:20]

02. Москва [00:02:38]

03. Обгоняя солнце [00:06:10]

04. Метро [00:03:13]

05. Дрочу [00:04:48]

09. Регги [00:03:57]

10. South Punk [00:05:48]

Команда "Plush Fish" образовалась в 2000 году, до 2002 года музыканты, инструменты и концепция неоднократно менялись: все эти брожения прекратились с приходом в группу в 2002 году Марианны и Антона, которые и утвердили существующую сейчас стилистику группы.

скачать торрент дискография fish:

  • скачать
  • скачать
  • Другие статьи

    Скачать музыка Reel Big Fish - Дискография - ТОРРЕНТИНО - торрент трекер

    Reel Big Fish - Дискография / Ska-Punk / 1995-2009 / MP3 / 192-320 kbps

    Исполнитель: Reel Big Fish

    Год выпуска: 1995 - 2009

    Аудио: MP3, 192-320 Кбит/с

    1995 - Everything Sucks: 320 kbps

    1996 - Turn the Radio Off: 320 kbps

    1998 - Why Do They Rock So Hard?: 320 kbps

    1999 - Take On Me: VBR V0 [Single]

    2001 - Viva La Internet: 192 kbps

    2002 - Cheer Up!: 320 kbps

    2003 - Live At The House Of Blues (The Show Must Go Off): VBR V0 [Live Album]

    2005 - We're Not Happy 'til You're Not Happy: VBR V0

    2006 - Greatest Hit. And More: VBR V0

    2007 - Monkeys For Nothin' & The Chimps For Free: 320 kbps

    2009 - Fame, Fortune and Fornication: 320 kbps

    1996 - Reel Big Fish / Goldfinger - Teen Beef-Tiger Meat: VBR V0 [Split]

    1997 - Reel Big Fish & Cherry Poppin' Daddies - Vacationing In Palm Springs: 320 kbps [Split]

    2002 - Monkey Man: 320 kbps [Single]

    1998 - The Kids Don't Like It: VBR V0 [Single]

    1997 - Keep Your Receipt: 320 kbps [EP]

    2002 - Favorite Noise: VBR V0 [Compilation]

    Скачать музыку Fish (1990) через торрент

    Скачать музыку Fish (Derek William Dick) - Discography / [1990 - 2006, Progressive rock, FLAC, APE] - торрент

    Скачать через торрент музыку вы можете, нажав на синюю кнопку.

    Год выпуска: 1990 - 2008

    Страна: Dalkeith, Midlothian, Scotland

    Жанр: Progressive rock

    Скачать торрент дискография fish

    02. Big Wedge (5:22)

    03. State Of Mind (4:46)

    04. The Company (4:09)

    05. A Gentleman's Excuse Me (4:19)

    06. The Voyeur (I Like To Watch) (4:45)

    07. Family Business (5:17)

    08. View From A Hill (6:41)

    10. Jack And Jill (bonus) (4:27)

    11. Internal Exile (bonus) (4:51)

    12. The Company (bonus - demo) (4:30)

    13. A Gentleman's Excuse Me (bonus - demo) (3:54)

    14. Whiplash (bonus) (4:25)

    Скачать торрент дискография fish

    3. Just Good Friends (Close) (6:00)

    4. Favourite Stranger (5:59)

    6. Dear Friend (4:07)

    8. Internal Exile (4:45)

    9. Something In The Air (5:09)

    Скачать торрент дискография fish

    03. Just Good Friends (Close) (06:00)

    04. Favourite Stranger (05:59)

    06. Dear Friend (04:07)

    07. Tongues (06:22)

    08. Internal Exile (04:45)

    09. Poet's Moon (04:26)

    10. Something In The Air (05:07) - On remastered CD

    11. Carnival Man (06:25) - On remastered CD

    Скачать торрент дискография fish

    4 Family Business (6:16)

    6 The Company (9:17)

    2 Dear Friend (9:59)

    4 Big Wedge (6:32)

    5 Heart Of Lothian (5:25)

    6 Forgotten Sons 9:47)

    7 I.Internal Exile (11:42)

    II.Market Square Heroes

    Скачать торрент дискография fish

    2. Boston Tea Party (4:23)

    5. Hold Your Head Up (3:46)

    7. I Know What I Like (4:16)

    8. Time and a Word (4;10)

    9. Five Years (5:20)

    Скачать торрент дискография fish

    2. Internal Exile (04:32)

    3. Kayleigh (04:15)

    4. Fortunes Of War (06:10)

    5. Dear Friend (03:45)

    6. Sugar Mice (05:46)

    7. Somebody Special (04:51)

    8. Jumpsuit City (04:47)

    9. Lady Let It Lie (05:23)

    Скачать торрент дискография fish

    02. Lady Let It Lie (6:53)

    03. Emperor's Song (6:17)

    04. Fortunes Of War (7:51)

    05. Somebody Special (5:22)

    06. No Dummy (6:16)

    07. Pipeline (6:43)

    08. Jumpsuit City (6:49)

    09. Bandwagon (5:07)

    10. Raw Meat (7:20)

    11. Black Canal (bonus) (8:27)

    12. Out of My Life (bonus) (3:42)

    Скачать торрент дискография fish

    2. Emperor's Song (06:17) (Live Version)

    3. Just Good Friends (06:20) (Live Version)

    4. Out Of My Life (03:47) (Live Version)

    Скачать торрент дискография fish

    02. Big Wedge (5:49) (1995 remix of 1990 original)

    03. Lady Let It Lie (6:56) (1995 remix of 1994 original)

    04. Lavender (4:59) (1995 re-recording)

    05. Credo (6:46) (1995 re-recording)

    06. A Gentleman`s Excuse Me (4:16) (1990 original)

    07. Kayleigh (4:10) (1995 re-recording)

    08. State Of Mind (6:50) (1995 re-recording)

    09. Somebody Special (4:23) (1995 re-recording)

    10. Sugar Mice (6:19) (1995 re-recording)

    11. Punch & Judy (3:29) (1995 re-recording)

    12. Fortunes Of War (8:07) (1994 original)

    13. Internal Exile (4:49) (1989 recording not previously release)

    Скачать торрент дискография fish

    02. Family Business [1990 Original Recording]

    03. Just Good Friends [1995 Re-recording featuring Sam Brown]

    04. Pipeline [1994 Original Recording]

    05. Institution Waltz [1995 Recording]

    06. Tongues [1991 Original Recording]

    07. Time and a Word [1993 Original Recording]

    08. Company [1990 Original Recording]

    09. Incubus [1995 Re-recording]

    10. Solo [1993 Original Recording]

    11. Favourite Stranger [1995 Re-recording]

    12. Boston Tea Party [1995 Re-Recording with the Sensational Alex Harvey]

    13. Raw Meat [Edited intro, 1994 Original Recording]

    Скачать торрент дискография fish

    02. Goldfish & Clowns (6:36)

    03. Change of Heart (3:41)

    04. What Colour is God? (5:50)

    06. Jungle Ride (7:33)

    07. Worm in a Bottle (6:23)

    08. Brother 52 (6:05 )

    09. Sunsets on Empire (6:54)

    10. Say it with Flowers (4:15)

    Скачать торрент дискография fish

    02. Just Good Friends (with Sam Brown) (05:47)

    03. Brother 52 (06:06)

    04. Chasing Miss Pretty (4.53)

    06. A Gentleman's Excuse Me (04:19)

    07. Goldfish and Clowns (06:39)

    08. Lady Let It Lie (04:12)

    10. State Of Mind (04:46)

    11. Mr. Buttons (4.36)

    12. Fortunes Of War (07:54)

    13. Internal Exile (04:41)

    Скачать торрент дискография fish

    2.Mission Statement 4:00

    4.Tilted Cross 4:19

    6.Rites Of Passage 7:42

    7.Plague Of Ghosts

    (I) Old Haunts 3:13

    (II) Digging Deep 6:49

    (III) Chocolate Frogs 4:04

    (IV) Waving At Stars 3:12

    (V) Raingod's Dancing 4:16

    (VI) Wake-up Call (Make It Happen) 3:32

    Скачать торрент дискография fish

    2. So Fellini (4:06)

    4. Our Smile (5:27)

    5. Long Cold Day (5:33)

    6. Dancing In Fog (5:30)

    7. Obligatory Ballad (5:15)

    8. The Pilgrim's Address (7:19)

    9. Clock Moves Sideways (7:17)

    Скачать торрент дискография fish

    03. Just Good Friends (6:19)

    04. Brother 52 (6:32)

    05. Goldfish And Clowns (8:14)

    06. Hotel Hobbies (4:22)

    07. Warm Wet Circles (4:20)

    08. That Time Of The Night (6:19)

    09. Tumbledown (5:49)

    10. Intro - Riff Raff - The Wine Waiter! (1:39)

    (ii) Digging Deep

    (iii) Chocolate Frogs

    (iv) Waving at Stars

    (v) Raingods Dansing

    (vi) Wake Up Call (Make it happen)

    03. Perception Of Johnny Punter (3:22)

    04. Sunsets On Empire (10:11)

    05. The Company (5:35)

    Скачать торрент дискография fish

    2 So Fellini (4:00)

    3 Brother 52 (6:01)

    4 Tumbledown (5:56)

    5 Long Cold Day (5:42)

    7 Our Smile (5:05)

    2 Pilgrim's Address (8:16)

    3 Medley: Lucky/Credo/Vigil in a Wilderness of Mirrors (13:23)

    4 Clock Moves Sideways (7:27)

    5 The Company (4:55)

    6 Flower of Scotland (2:15)

    Скачать торрент дискография fish

    02. Moving Targets (5.46)

    03. The Rookie (5.35)

    04. Zoo Class (5.23)

    05. The Lost Plot (5.10)

    06. Old Crow (5.20)

    08. Exit Wound (5.55)

    09. Innocent Party (7.37)

    10. Shot The Craw (6.00)

    11. Scattering Crows (Still Time) (5.05)

    Скачать торрент дискография fish

    02. Shot the Craw (2004 single edit) [(4.01)

    03. A Gentleman's Excuse Me (1989) (4.20)

    04. Kayleigh (1985 single edit) (3.36)

    05. Solo (1993) (4.02)

    06. Incomplete (with Elizabeth Troy Antwi, 1999) (3.44)

    07. The Company (1989) (4.07)

    08. Fortunes of War (1994 single edit) (5.05)

    09. Our Smile (2001 single edit) (4.15)

    10. Lavender (1985) (3.43)

    11. Lady Let it Lie (1994 single edit) (4.07)

    12. Cliche (1989) (7.06)

    13. Scattering Crows (2004) (5.05)

    14. Tara (1997 edit) (4.01)

    15. Caledonia (2003) (5.25)

    16. Raw Meat (1994 edit) (5.05)

    02. Credo (1991 single edit) (4.04)

    03. Incommunicado (1987 single edit) (3.57)

    04. Goldfish and Clowns (4.11)

    05. Long Cold Day (2001) (5.33)

    06. Brother 52 (1997 single edit) (3.55)

    07. Clock Moves Sideways (2001) (7.17)

    08. The Perception of Johnny Punter (1997) (8.36)

    09. Moving Targets (2004) (5.46)

    10. Plague of Ghosts (1999)

    11. (i) Old Haunts (3.13)

    12. (ii) Digging Deep (6.49)

    13. (iii) Chocolate Frogs (4.04)

    14. (iv) Waving at Stars (3.12)

    15. (v) Raingods Dancing (4.16)

    16. (vi) Wake up Call (Make it Happen) (3.32)

    Скачать торрент дискография fish

    02. Jumpsuit City (5.30)

    03. Favourite Stranger (5.50)

    04. Shot the Craw (5.29)

    05. State of Mind (7.32)

    06. Tilted Cross (4.22)

    07. Fortunes of War (6.37)

    08. Just Good Friends (6.03)

    09. Incomplete (4.06)

    10. Change of Heart (3.44)

    11. Lady Let It Lie (5.55)

    12. A Gentleman's Excuse Me (4.19)

    2. The Lost Plot (4.53)

    3. Slainte Mhath (5.13)

    4. Chelsea Monday (6.11)

    5. Scattering Crows (5.22)

    Скачать торрент дискография fish

    2. Moving Targets (7.17)

    3. Brother 52 (5.01)

    4. Goldfish and Clowns (6.50)

    5. Raingods Dancing (4.47)

    6. Wake Up Call (Make it Happen) (3.19)

    7. Innocent Party (5.07)

    8. Long Cold Day (6.27)

    02. Kayleigh (4.04)

    03. Lavender (2.57)

    04. Bitter Suite (8.29)

    (i) Brief Encounter

    (ii) Lost Weekend

    05. Heart of Lothian ()5.27

    (ii) Curtain Call

    06. Waterhole (Expresso Bongo) (1.59)

    07. Lords of the Backstage (1.52)

    08. Blind Curve (13.04)

    (i) Vocal Under a Bloodlight

    (ii) Passing Strangers

    (iv) Perimeter Walk

    (v) Threshold 13.04

    09. Childhoods End? (4.34)

    10. White Feather (4.46)

    11. Incommunicado (5.11)

    12. Market Square Heroes (6.56)

    Скачать торрент дискография fish

    01. Circle Line (6:04)

    02. Square Go (5:31)

    03. Miles de Besos (4:22)

    05. Arc of the Curve (4:29)

    06. Manchmal (5:42)

    07. Open Water (5:07)

    08. Dark Star (6:49)

    09. Where in the World (6:05)

    10. Thirtennth Star (5:41)

    Информация о торренте:

    Скачан: 982 раза

    Статус: Проверен Зарегистрирован на трекере: 2010-08-09 21:11

    Как качать с торрента?

    1990 - Vigil In A Wilderness Of Mirrors

    Отчет EAC об извлечении из 17. Январь 2008, 8:38 для CD

    Fish / Vigil In A Wilderness Of Mirrors

    Режим чтения: Точный: C2 - нет, точный поток - да, отключение кэша - да

    Коррекция смещения при чтении: 48

    Экстрачтение Lead-in и Lead-out : Нет

    44.100 Гц; 16 бит; стерео

    Заполнять пропущенные сэмплы тишиной : Да

    Удалить блоки с тишиной в начале и конце : Нет

    Установленный внешний ASPI-интерфейс

    Имя файла E:\LossLess\My_Folders\Fish-Vigil In A Wilderness Of Mirrors_1989\Fish-Vigil In A Wilderness Of Mirrors_1989.wav

    Качество диапазона 99.9 %

    Exact Audio Copy V0.99 prebeta 3 from 28. July 2007

    Benutze Accurate Stream : Ja

    Audio Puffer abgeschaltet : Ja

    Benutze C2 Fehlerinformationen : Nein

    Ьberlesen in das Lead-In und Lead-Out : Nein

    Fьlle fehlende Offsetsample mit Stille auf : Ja

    Lцsche fьhrende und nachfolgende stille Blцcke : Nein

    Null Samples gehen in CRC Berechnungen ein : Nein

    Benutzte Schnittstelle : Installierte externe ASPI Schnittstelle

    Gewдhlte Bitrate : 1024 kBit/s

    Fьge ID3 Tag hinzu : Nein

    Kommandozeilen Komprimierer : C:\Programme\Exact Audio Copy\FLAC\FLAC.EXE

    Zusдtzliche Kommandozeilenoptionen : -6 -V -T "ARTIST=%a" -T "TITLE=%t" -T "ALBUM=%g" -T "DATE=%y" -T "TRACKNUMBER=%n" -T "GENRE=%m" -T "COMMENT=%e" %s -o %d

    1 | 0:00.32 | 6:25.23 | 32 | 28929

    2 | 6:25.55 | 6:39.57 | 28930 | 58911

    3 | 13:05.37 | 5:59.73 | 58912 | 85909

    4 | 19:05.35 | 5:58.70 | 85910 | 112829

    5 | 25:04.30 | 4:49.60 | 112830 | 134564

    6 | 29:54.15 | 4:07.32 | 134565 | 153121

    7 | 34:01.47 | 6:23.13 | 153122 | 181859

    8 | 40:24.60 | 4:41.37 | 181860 | 202971

    9 | 45:06.22 | 5:07.05 | 202972 | 226001

    Kopie CRC 01FE2C9E

    Exact Audio Copy V0.99 prebeta 4 from 23. January 2008

    Utilize accurate stream : Yes

    Defeat audio cache : Yes

    Make use of C2 pointers : No

    Overread into Lead-In and Lead-Out : No

    Fill up missing offset samples with silence : Yes

    Delete leading and trailing silent blocks : No

    Null samples used in CRC calculations : Yes

    Used interface : Native Win32 interface for Win NT & 2000

    Gap handling : Appended to previous track

    Selected bitrate : 1024 kBit/s

    Add ID3 tag : No

    Command line compressor : C:\Program Files\FLAC\flac.exe

    Additional command line options : -8 -V -T "ARTIST=%a" -T "TITLE=%t" -T "ALBUM=%g" -T "DATE=%y" -T "TRACKNUMBER=%n" -T "GENRE=%m" -T "COMMENT=EAC FLAC -8" %s

    1 | 0:00.00 | 6:24.12 | 0 | 28811

    2 | 6:24.12 | 6:40.01 | 28812 | 58812

    3 | 13:04.13 | 5:59.73 | 58813 | 85810

    4 | 19:04.11 | 5:58.56 | 85811 | 112716

    5 | 25:02.67 | 4:49.65 | 112717 | 134456

    6 | 29:52.57 | 4:08.00 | 134457 | 153056

    7 | 34:00.57 | 6:22.51 | 153057 | 181757

    8 | 40:23.33 | 4:44.28 | 181758 | 203085

    9 | 45:07.61 | 4:26.60 | 203086 | 223095

    10 | 49:34.46 | 5:08.06 | 223096 | 246201

    11 | 54:42.52 | 6:28.38 | 246202 | 275339

    Track quality 99.9 %

    Test CRC 27AA02C2

    Copy CRC 27AA02C2

    Cannot be verified as accurate (confidence 2) [E0E1BD0B], AccurateRip returned [621008CF]

    Track quality 100.0 %

    Test CRC 6A21F74F

    Copy CRC 6A21F74F

    Cannot be verified as accurate (confidence 2) [859D43AD], AccurateRip returned [FA752B75]

    Track quality 99.9 %

    Test CRC E9FA78BB

    Copy CRC E9FA78BB

    Cannot be verified as accurate (confidence 2) [13458562], AccurateRip returned [FAB4CE1D]

    Track quality 100.0 %

    Test CRC 26D43F76

    Copy CRC 26D43F76

    Cannot be verified as accurate (confidence 2) [338095D0], AccurateRip returned [6C9892FD]

    Track quality 99.9 %

    Test CRC 74E51F35

    Copy CRC 74E51F35

    Cannot be verified as accurate (confidence 2) [AA5460BA], AccurateRip returned [D98B1472]

    Track quality 100.0 %

    Test CRC 690B6FFD

    Copy CRC 690B6FFD

    Cannot be verified as accurate (confidence 2) [5913C119], AccurateRip returned [184BB86C]

    Track quality 100.0 %

    Test CRC 5334C75E

    Copy CRC 5334C75E

    Cannot be verified as accurate (confidence 2) [E59E5038], AccurateRip returned [550F5325]

    Track quality 100.0 %

    Test CRC 36D5BA8B

    Copy CRC 36D5BA8B

    Cannot be verified as accurate (confidence 2) [78A90882], AccurateRip returned [2EDB45DE]

    Track quality 100.0 %

    Test CRC CAA6B878

    Copy CRC CAA6B878

    Cannot be verified as accurate (confidence 2) [067D438D], AccurateRip returned [7FDF36C9]

    Track quality 100.0 %

    Test CRC B6220398

    Copy CRC B6220398

    Cannot be verified as accurate (confidence 2) [DCBEC559], AccurateRip returned [51DDAC39]

    Track quality 100.0 %

    Test CRC C4D0215B

    Copy CRC C4D0215B

    Cannot be verified as accurate (confidence 2) [C33FED33], AccurateRip returned [A5256B07]

    You may have a different pressing from the one(s) in the database

    Exact Audio Copy V0.99 prebeta 4 from 23. January 2008

    Utilize accurate stream : Yes

    Defeat audio cache : Yes

    Make use of C2 pointers : Yes

    Overread into Lead-In and Lead-Out : No

    Fill up missing offset samples with silence : Yes

    Delete leading and trailing silent blocks : No

    Null samples used in CRC calculations : Yes

    Used interface : Installed external ASPI interface

    Selected bitrate : 1024 kBit/s

    Add ID3 tag : Yes

    Command line compressor : D:\EAC\flac.exe

    Additional command line options : -V -8 -T "artist=%a" -T "title=%t" -T "album=%g" -T "date=%y" -T "tracknumber=%n" -T "genre=%m" %s

    1 | 0:00.32 | 9:07.68 | 32 | 41124

    2 | 9:08.25 | 8:14.37 | 41125 | 78211

    3 | 17:22.62 | 7:31.28 | 78212 | 112064

    4 | 24:54.15 | 6:16.37 | 112065 | 140301

    5 | 31:10.52 | 15:03.45 | 140302 | 208071

    6 | 46:14.22 | 9:17.73 | 208072 | 249919

    Range quality 100.0 %

    Copy CRC C0223DBE

    Track 2 accurately ripped (confidence 2) [398A306F]

    Track 3 accurately ripped (confidence 2) [AA7EE94F]

    Track 4 accurately ripped (confidence 2) [2E8D4EAE]

    Track 5 accurately ripped (confidence 2) [7D74616D]

    Track 6 accurately ripped (confidence 2) [0D8D4144]

    Exact Audio Copy V0.99 prebeta 4 from 23. January 2008

    Utilize accurate stream : Yes

    Defeat audio cache : Yes

    Make use of C2 pointers : Yes

    Overread into Lead-In and Lead-Out : No

    Fill up missing offset samples with silence : Yes

    Delete leading and trailing silent blocks : No

    Null samples used in CRC calculations : Yes

    Used interface : Installed external ASPI interface

    Selected bitrate : 1024 kBit/s

    Add ID3 tag : Yes

    Command line compressor : D:\EAC\flac.exe

    Additional command line options : -V -8 -T "artist=%a" -T "title=%t" -T "album=%g" -T "date=%y" -T "tracknumber=%n" -T "genre=%m" %s

    1 | 0:00.32 | 12:44.18 | 32 | 57349

    2 | 12:44.50 | 9:58.25 | 57350 | 102224

    3 | 22:43.00 | 6:01.52 | 102225 | 129351

    4 | 28:44.52 | 6:32.23 | 129352 | 158774

    5 | 35:17.00 | 5:25.20 | 158775 | 183169

    6 | 40:42.20 | 9:47.25 | 183170 | 227219

    7 | 50:29.45 | 11:42.05 | 227220 | 279874

    Range quality 100.0 %

    Copy CRC 19CCEFEB

    Track 2 accurately ripped (confidence 2)

    Track 3 accurately ripped (confidence 2) [3BF5D381]

    Track 4 accurately ripped (confidence 2) [953A5180]

    Track 5 accurately ripped (confidence 2) [86CFB7C4]

    Track 6 accurately ripped (confidence 2) [7A98B8C3]

    Track 7 accurately ripped (confidence 2) [C81ABB6D]

    Exact Audio Copy V0.99 prebeta 4 from 23. January 2008

    Использование точного потока : Да

    Отключение кэша аудио : Да

    Использование указателей C2 : Нет

    Способность читать области Lead-in и Lead-out : Нет

    Заполнение пропущенных сэмплов тишиной : Да

    Удаление блоков с тишиной в начале и конце : Нет

    При вычислениях CRC использовались нулевые сэмплы : Да

    Интерфейс : Установленный внешний ASPI-интерфейс

    Выбранный битрейт : Fast Lossless Compression

    Добавление ID3-тэга : Нет

    Утилита сжатия : J:\Dist\Codecs\APE\mac.exe

    Смещение при сжатии : 0

    1 | 0:00.33 | 6:40.32 | 33 | 30064

    2 | 6:40.65 | 4:22.10 | 30065 | 49724

    3 | 11:03.00 | 6:15.33 | 49725 | 77882

    4 | 17:18.33 | 5:56.20 | 77883 | 104602

    5 | 23:14.53 | 3:46.02 | 104603 | 121554

    6 | 27:00.55 | 4:06.25 | 121555 | 140029

    7 | 31:07.05 | 4:16.48 | 140030 | 159277

    8 | 35:23.53 | 4:10.07 | 159278 | 178034

    9 | 39:33.60 | 5:19.18 | 178035 | 201977

    Качество диапазона 99.9 %

    CRC копии EFFCBE7F

    Exact Audio Copy V0.99 prebeta 4 from 23. January 2008

    Utilize accurate stream : Yes

    Defeat audio cache : Yes

    Make use of C2 pointers : Yes

    Overread into Lead-In and Lead-Out : No

    Fill up missing offset samples with silence : Yes

    Delete leading and trailing silent blocks : No

    Null samples used in CRC calculations : Yes

    Used interface : Installed external ASPI interface

    Selected bitrate : 1024 kBit/s

    Add ID3 tag : Yes

    Command line compressor : D:\EAC\flac.exe

    Additional command line options : -V -8 -T "artist=%a" -T "title=%t" -T "album=%g" -T "date=%y" -T "tracknumber=%n" -T "genre=%m" %s

    1 | 0:00.00 | 4:26.37 | 0 | 19986

    2 | 4:26.37 | 4:32.35 | 19987 | 40421

    3 | 8:58.72 | 4:15.35 | 40422 | 59581

    4 | 13:14.32 | 6:10.38 | 59582 | 87369

    5 | 19:24.70 | 3:45.40 | 87370 | 104284

    6 | 23:10.35 | 5:46.22 | 104285 | 130256

    7 | 28:56.57 | 4:51.70 | 130257 | 152151

    8 | 33:48.52 | 4:47.33 | 152152 | 173709

    9 | 38:36.10 | 5:23.70 | 173710 | 198004

    Range quality 99.9 %

    Copy CRC 9C9F45D2

    Track 2 accurately ripped (confidence 4) [F345EC93]

    Track 3 accurately ripped (confidence 4) [C550F60E]

    Track 4 accurately ripped (confidence 4) [6E22CE4E]

    Track 5 accurately ripped (confidence 4) [69206D20]

    Track 6 accurately ripped (confidence 4) [834E0FB6]

    Track 7 accurately ripped (confidence 4) [046E2DDB]

    Track 8 accurately ripped (confidence 4) [77FA98EE]

    Track 9 accurately ripped (confidence 4) [215CFD66]

    Exact Audio Copy V0.99 prebeta 4 from 23. January 2008

    Utilize accurate stream : Yes

    Defeat audio cache : Yes

    Make use of C2 pointers : Yes

    Overread into Lead-In and Lead-Out : No

    Fill up missing offset samples with silence : Yes

    Delete leading and trailing silent blocks : No

    Null samples used in CRC calculations : Yes

    Used interface : Installed external ASPI interface

    Selected bitrate : High Lossless Compression

    Add ID3 tag : Yes

    Command line compressor : D:\EAC\MAC.exe

    Additional command line options : -7 -V -T "ARTIST=%a" -T "TITLE=%t" -T "ALBUM=%g" -T "DATE=%y" -T "TRACKNUMBER=%n" -T "GENRE=%m" -T "COMMENT=%e" %s -o %d

    1 | 0:00.00 | 6:06.20 | 0 | 27469

    2 | 6:06.20 | 6:53.58 | 27470 | 58502

    3 | 13:00.03 | 6:18.42 | 58503 | 86894

    4 | 19:18.45 | 7:51.25 | 86895 | 122244

    5 | 27:09.70 | 5:22.50 | 122245 | 146444

    6 | 32:32.45 | 6:16.55 | 146445 | 174699

    7 | 38:49.25 | 6:43.28 | 174700 | 204952

    8 | 45:32.53 | 6:49.50 | 204953 | 235677

    9 | 52:22.28 | 5:07.20 | 235678 | 258722

    10 | 57:29.48 | 7:20.27 | 258723 | 291749

    11 | 64:50.00 | 8:27.08 | 291750 | 329782

    12 | 73:17.08 | 3:42.42 | 329783 | 346474

    Range quality 100.0 %

    Copy CRC 08A03A37

    Exact Audio Copy V0.99 prebeta 4 from 23. January 2008

    Использование точного потока : Да

    Отключение кэша аудио : Да

    Использование указателей C2 : Нет

    Способность читать области Lead-in и Lead-out : Нет

    Заполнение пропущенных сэмплов тишиной : Да

    Удаление блоков с тишиной в начале и конце : Нет

    При вычислениях CRC использовались нулевые сэмплы : Да

    Интерфейс : Установленный внешний ASPI-интерфейс

    Выбранный битрейт : 1024 kBit/s

    Добавление ID3-тэга : Нет

    Утилита сжатия : C:\Program Files\FLAC\flac.exe

    Дополнительные параметры : -8 -V %s %d

    Смещение при сжатии : 0

    1 | 0:00.32 | 4:56.28 | 32 | 22259

    2 | 4:56.60 | 5:49.02 | 22260 | 48436

    3 | 10:45.62 | 6:57.48 | 48437 | 79759

    4 | 17:43.35 | 5:00.15 | 79760 | 102274

    5 | 22:43.50 | 6:46.52 | 102275 | 132776

    6 | 29:30.27 | 4:18.08 | 132777 | 152134

    7 | 33:48.35 | 4:10.22 | 152135 | 170906

    8 | 37:58.57 | 6:49.43 | 170907 | 201624

    9 | 44:48.25 | 4:25.00 | 201625 | 221499

    10 | 49:13.25 | 6:19.35 | 221500 | 249959

    11 | 55:32.60 | 3:27.62 | 249960 | 265546

    12 | 59:00.47 | 8:07.38 | 265547 | 302109

    13 | 67:08.10 | 4:48.00 | 302110 | 323709

    Качество диапазона 100.0 %

    CRC копии 2ECE980C

    Exact Audio Copy V0.99 prebeta 4 from 23. January 2008

    Использование точного потока : Да

    Отключение кэша аудио : Да

    Использование указателей C2 : Нет

    Способность читать области Lead-in и Lead-out : Нет

    Заполнение пропущенных сэмплов тишиной : Да

    Удаление блоков с тишиной в начале и конце : Нет

    При вычислениях CRC использовались нулевые сэмплы : Да

    Интерфейс : Установленный внешний ASPI-интерфейс

    Выбранный битрейт : 1024 kBit/s

    Добавление ID3-тэга : Нет

    Утилита сжатия : C:\Program Files\FLAC\flac.exe

    Дополнительные параметры : -8 -V %s %d

    Смещение при сжатии : 0

    1 | 0:00.00 | 5:08.35 | 0 | 23134

    2 | 5:08.35 | 5:14.27 | 23135 | 46711

    3 | 10:22.62 | 5:46.03 | 46712 | 72664

    4 | 16:08.65 | 6:55.57 | 72665 | 103846

    5 | 23:04.47 | 4:03.18 | 103847 | 122089

    6 | 27:07.65 | 6:18.72 | 122090 | 150511

    7 | 33:26.62 | 4:23.00 | 150512 | 170236

    8 | 37:49.62 | 4:07.15 | 170237 | 188776

    9 | 41:57.02 | 9:41.45 | 188777 | 232396

    10 | 51:38.47 | 4:10.05 | 232397 | 251151

    11 | 55:48.52 | 6:03.65 | 251152 | 278441

    12 | 61:52.42 | 4:57.65 | 278442 | 300781

    13 | 66:50.32 | 6:52.43 | 300782 | 331724

    Качество диапазона 100.0 %

    CRC копии 27116EA7

    Exact Audio Copy V0.99 prebeta 4 from 23. January 2008

    Использование точного потока : Да

    Отключение кэша аудио : Нет

    Использование указателей C2 : Нет

    Способность читать области Lead-in и Lead-out : Нет

    Заполнение пропущенных сэмплов тишиной : Да

    Удаление блоков с тишиной в начале и конце : Нет

    При вычислениях CRC использовались нулевые сэмплы : Да

    Интерфейс : Встроенный Win32-интерфейс для Win NT/2000

    Формат сэмплов : 44.100 Гц; 16 бит; стерео

    1 | 0:00.00 | 8:36.55 | 0 | 38754

    2 | 8:36.55 | 6:36.10 | 38755 | 68464

    3 | 15:12.65 | 3:41.22 | 68465 | 85061

    4 | 18:54.12 | 5:51.12 | 85062 | 111398

    5 | 24:45.24 | 5:11.35 | 111399 | 134758

    6 | 29:56.59 | 7:34.70 | 134759 | 168878

    7 | 37:31.54 | 6:23.60 | 168879 | 197663

    8 | 43:55.39 | 6:05.62 | 197664 | 225100

    9 | 50:01.26 | 6:52.53 | 225101 | 256053

    10 | 56:54.04 | 4:15.05 | 256054 | 275183

    Качество диапазона 100.0 %

    CRC копии 29EACAD4

    Exact Audio Copy V0.99 prebeta 4 from 23. January 2008

    Использование точного потока : Да

    Отключение кэша аудио : Да

    Использование указателей C2 : Нет

    Способность читать области Lead-in и Lead-out : Нет

    Заполнение пропущенных сэмплов тишиной : Да

    Удаление блоков с тишиной в начале и конце : Нет

    При вычислениях CRC использовались нулевые сэмплы : Да

    Интерфейс : Встроенный Win32-интерфейс для Win NT/2000

    Формат сэмплов : 44.100 Гц; 16 бит; стерео

    1 | 0:00.00 | 5:19.24 | 0 | 23948

    2 | 5:19.24 | 5:47.74 | 23949 | 50047

    3 | 11:07.23 | 6:05.50 | 50048 | 77472

    4 | 17:12.73 | 4:52.36 | 77473 | 99408

    5 | 22:05.34 | 6:41.18 | 99409 | 129501

    6 | 28:46.52 | 4:19.33 | 129502 | 148959

    7 | 33:06.10 | 6:38.30 | 148960 | 178839

    8 | 39:44.40 | 4:12.35 | 178840 | 197774

    9 | 43:57.00 | 4:58.22 | 197775 | 220146

    10 | 48:55.22 | 4:46.13 | 220147 | 241609

    11 | 53:41.35 | 4:36.18 | 241610 | 262327

    12 | 58:17.53 | 7:54.38 | 262328 | 297915

    13 | 66:12.16 | 4:41.10 | 297916 | 319000

    Качество диапазона 100.0 %

    CRC копии 54432A0C

    Exact Audio Copy V0.99 prebeta 4 from 23. January 2008

    Utilize accurate stream : Yes

    Defeat audio cache : Yes

    Make use of C2 pointers : No

    Overread into Lead-In and Lead-Out : No

    Fill up missing offset samples with silence : Yes

    Delete leading and trailing silent blocks : No

    Null samples used in CRC calculations : Yes

    Used interface : Installed external ASPI interface

    Selected bitrate : 768 kBit/s

    Add ID3 tag : No

    Command line compressor : C:\Program Files\Exact Audio Copy\Flac\flac.exe

    Additional command line options : -8 -V -T "ARTIST=%a" -T "TITLE=%t" -T "ALBUM=%g" -T "DATE=%y" -T "TRACKNUMBER=%n" -T "GENRE=%m" -T "COMMENT=%e" %s -o %d

    1 | 0:00.00 | 5:51.40 | 0 | 26364

    2 | 5:51.40 | 3:59.32 | 26365 | 44321

    3 | 9:50.72 | 3:43.44 | 44322 | 61090

    4 | 13:34.41 | 4:18.42 | 61091 | 80482

    5 | 17:53.08 | 5:00.32 | 80483 | 103014

    6 | 22:53.40 | 7:41.67 | 103015 | 137656

    7 | 30:35.32 | 3:12.33 | 137657 | 152089

    8 | 33:47.65 | 6:48.73 | 152090 | 182762

    9 | 40:36.63 | 4:04.23 | 182763 | 201085

    10 | 44:41.11 | 3:12.00 | 201086 | 215485

    11 | 47:53.11 | 4:16.10 | 215486 | 234695

    12 | 52:09.21 | 3:31.12 | 234696 | 250532

    Range quality 100.0 %

    Test CRC F37AE46C

    Copy CRC F37AE46C

    Track 2 accurately ripped (confidence 41) [9D3D3FD7]

    Track 3 accurately ripped (confidence 41) [0F100634]

    Track 4 accurately ripped (confidence 41) [2F4F613D]

    Track 5 accurately ripped (confidence 39) [76F4CA6E]

    Track 6 accurately ripped (confidence 39) [15660F90]

    Track 7 accurately ripped (confidence 3 [A6FF8256]

    Track 8 accurately ripped (confidence 39) [6C709EBF]

    Track 9 accurately ripped (confidence 39) [2C25E37A]

    Track 10 accurately ripped (confidence 39) [8C98D5B1]

    Track 11 accurately ripped (confidence 40) [73A06328]

    Track 12 accurately ripped (confidence 39) [20959CCF]

    Exact Audio Copy V0.99 prebeta 4 from 23. January 2008

    Utilize accurate stream : Yes

    Defeat audio cache : Yes

    Make use of C2 pointers : Yes

    Overread into Lead-In and Lead-Out : No

    Fill up missing offset samples with silence : Yes

    Delete leading and trailing silent blocks : No

    Null samples used in CRC calculations : Yes

    Used interface : Installed external ASPI interface

    Selected bitrate : 1024 kBit/s

    Add ID3 tag : Yes

    Command line compressor : D:\EAC\flac.exe

    Additional command line options : -V -8 -T "artist=%a" -T "title=%t" -T "album=%g" -T "date=%y" -T "tracknumber=%n" -T "genre=%m" %s

    1 | 0:00.36 | 9:11.16 | 36 | 41376

    2 | 9:11.52 | 4:06.30 | 41377 | 59856

    3 | 13:18.07 | 7:32.29 | 59857 | 93785

    4 | 20:50.36 | 5:25.49 | 93786 | 118209

    5 | 26:16.10 | 5:33.20 | 118210 | 143204

    6 | 31:49.30 | 5:30.45 | 143205 | 167999

    7 | 37:20.00 | 5:15.61 | 168000 | 191685

    8 | 42:35.61 | 7:18.08 | 191686 | 224543

    9 | 49:53.69 | 7:17.34 | 224544 | 257352

    Range quality 100.0 %

    Copy CRC 4192DD2F

    Track 2 accurately ripped (confidence 16) [6E21F828]

    Track 3 accurately ripped (confidence 15) [8D76014E]

    Track 4 accurately ripped (confidence 15) [9E66B6C8]

    Track 5 accurately ripped (confidence 16) [8C3FA8E3]

    Track 6 accurately ripped (confidence 16) [9773A447]

    Track 7 accurately ripped (confidence 17) [3F99880C]

    Track 8 accurately ripped (confidence 17) [41E11A4F]

    Track 9 accurately ripped (confidence 16) [2F78C258]

    Exact Audio Copy V0.99 prebeta 5 from 4. May 2009

    Использование точного потока : Да

    Отключение кэша аудио : Да

    Использование указателей C2 : Нет

    Способность читать области Lead-in и Lead-out : Нет

    Заполнение пропущенных сэмплов тишиной : Да

    Удаление блоков с тишиной в начале и конце : Нет

    При вычислениях CRC использовались нулевые сэмплы : Нет

    Интерфейс : Встроенный Win32-интерфейс для Win NT/2000

    Формат сэмплов : 44.100 Гц; 16 бит; стерео

    1 | 0:00.00 | 5:09.56 | 0 | 23230

    2 | 5:09.56 | 6:04.68 | 23231 | 50598

    3 | 11:14.49 | 6:18.18 | 50599 | 78966

    4 | 17:32.67 | 6:32.31 | 78967 | 108397

    5 | 24:05.23 | 8:13.55 | 108398 | 145427

    6 | 32:19.03 | 4:22.12 | 145428 | 165089

    7 | 36:41.15 | 4:19.52 | 165090 | 184566

    8 | 41:00.67 | 6:18.74 | 184567 | 212990

    9 | 47:19.66 | 5:49.13 | 212991 | 239178

    10 | 53:09.04 | 1:37.59 | 239179 | 246512

    Качество диапазона 100.0 %

    CRC теста 59AE970C

    CRC копии 59AE970C

    Трек 2 точное извлечение (доверие 3) [216D94FE]

    Трек 3 точное извлечение (доверие 3)

    Трек 4 точное извлечение (доверие 3)

    Трек 5 точное извлечение (доверие 3) [7E65BC61]

    Трек 6 точное извлечение (доверие 3) [53487F88]

    Трек 7 точное извлечение (доверие 3) [28E0F80D]

    Трек 8 точное извлечение (доверие 3) [911BA7FA]

    Трек 9 точное извлечение (доверие 3) [3B1B33C7]

    Трек 10 точное извлечение (доверие 3) [AEE829D8]

    Exact Audio Copy V0.99 prebeta 5 from 4. May 2009

    Использование точного потока : Да

    Отключение кэша аудио : Да

    Использование указателей C2 : Нет

    Способность читать области Lead-in и Lead-out : Нет

    Заполнение пропущенных сэмплов тишиной : Да

    Удаление блоков с тишиной в начале и конце : Нет

    При вычислениях CRC использовались нулевые сэмплы : Нет

    Интерфейс : Встроенный Win32-интерфейс для Win NT/2000

    Формат сэмплов : 44.100 Гц; 16 бит; стерео

    1 | 0:00.36 | 28:42.61 | 36 | 129246

    2 | 28:43.22 | 7:04.59 | 129247 | 161105

    3 | 35:48.06 | 3:21.42 | 161106 | 176222

    4 | 39:09.48 | 10:11.04 | 176223 | 222051

    5 | 49:20.52 | 5:35.09 | 222052 | 247185

    Качество диапазона 100.0 %

    CRC теста 45A80511

    CRC копии 45A80511

    Трек 2 точное извлечение (доверие 3) [41EEC3D3]

    Трек 3 точное извлечение (доверие 3) [7144D9D4]

    Трек 4 точное извлечение (доверие 3) [84F62542]

    Трек 5 точное извлечение (доверие 3) [FA443C88]