File-Portal

скачать дискография братья жемчужные торрент

Рейтинг: 5.0/5.0 (83 проголосовавших)

Категория: Торрент-файлы

Описание

Музыкальный сборник Братья Жемчужные - Коллекция (7CD) (1974-1999) скачать бесплатно

1 - Докурим Свой Окурочек (1999)
01. Вступление
02. Сталинский червонец
03. Солёные грибочки
04. На хмельной волне
05. Докурим свой окурочек
06. Стюардесса
07. Дворовый джаз
08. Старый саксофон
09. Разговор с Авророй
10. Биржа
11. Тётя Маша
12. Дача
13. Тётя Фрося

2 - На Халяву (1998)
01. На Халяву
02. Машка И Мышка
03. Осенняя Роса
04. Тапёр
05. Маруся
06. Что Нас Ждёт
07. Жигули
08. Начальничек
09. Дума
10. Конфетки-Прянички
11. Гиппопотам

3 - Душа Дурного Общества (1995)
01. Душа Дурного Общества
02. Да, Я Пьяна.
03. Чара
04. Что Не Сбылось, То Сбудется
05. Твоя Фотография
06. Старая Шляпа
07. Наташка!
08. Тёмно-Вишнёвая Шаль
09. Маслицо
10. Последний Луч Заката
11. Дежурный По Апрелю
12. Первая Любовь
13. Кабальеро
14. Виновата Ли Я
15. Метёлки
16. Ты-Случайная Встреча
17. Конфетки-Прянички.

4 - Мамаши Спят (1994)
01. Мамаши спят.
02. Мужичок из Тольятти
03. Неудачное свидание
04. Мишка,Мишка.
05. Батальонный разведчик
06. Шумит метель
07. Мадонна
08. Алименты
09. Скажите,почему
10. Стёпка
11. Баллада о нищете
12. Расцвела сирень
13. Я в тупике
14. Людоедочка
15. Губит людей не пиво

5 - Стоял Я Раз На Стрёме (1991)
01. Стоял Я Раз На Стрёме
02. Семь Маслин В Нагане
03. Сонечка
04. Алёха Рыжий
05. Чужой Звонок
06. Жил Я В Шумном Городе Одесса
07. Приморили, Гады, Приморили
08. Скокарь
09. Мой Приятель Студент
10. Памяти Друга
11. Я Один Сижу На Тротуаре

6 - На Саночках (1975)
01. На саночках
02. Зачем
03. 8 лет на казенной постели
04. Поспели вишни
05. Сын поварихи
06. А ты хоть удавись!
07. Я родом из Одессы
08. Серега-пролетарий
09. Ухарь-купец
10. На троих
11. Окурочек
12. Люблю цыгана Яна
13. Постой. паровоз!
14. Насчастная девченочка
15. Клопики
16. Ах, Одесса!
17. На Дерибасовской
18. Прощай, ты, Новая деревня
19. Утомленное солнце
20. Всю Сибирь прошел

7 - Я Решил Жениться (1974)
01. Я решил жениться
02. Поезд ехал на восток
03. Госпожа Разлука
04. Школа бальных танцев
05. Журавли
06. Черная роза
07. У нас в Одессе это не едят
08. Рыжая
09. Березовый сок
10. Я милого узнаю по походке
11. Пара гнедых
12. Синяя крона
13. Товарищь Парамонова
14. Крокодил Гена
15. Сурка

Похожие новости Комментарии (0)

скачать дискография братья жемчужные торрент:

  • скачать
  • скачать
  • Другие статьи

    Братья Жемчужные

    Раздача является мультитрекерной — учтите, количество раздающих не будет совпадать с количеством участников на сайте (скачивание на клиентской стороне зависит от настроек µTorrent клиент программы, настройки -> Включить DHT, Обмен пирами и Поиск лок-х пиров).
    Если висит надпись, пиры по нулям - не бойтесь, возможность скачать повторно раздачу - есть. Попробуйте, в случае отказа - прокоментируйте или нажмите на "Позвать скачавших".

    Скачать .torrent файл (основная ссылка для скачивания файла)
    Смотреть / Слушать онлайн просмотр (ссылка для просмотра файла через плагин 'Torrent Stream')
    Magnet-ссылка (альтернативная ссылка для скачивания файла)


    01. На краю пропасти стою
    02. Госпожа,разлука
    03. Крокодил Гена
    04. Мужичок из Тольятти
    05. А ты-хоть удавись
    06. Зачем
    07. Серенька-пролетарий
    08. Утомленное солнце
    09. Отметка на стакане
    10. Люблю цыгана Яна
    11. Несчастная девчонка
    12. Рыжая
    13. Березовый сок
    14. Виновата ли Я
    15. Черная роза
    16. Василечки
    17. Песня шофера-бывшего семинариста
    18. Чара
    19. Мадонна
    20. Метелки
    21. Баллада о нищете
    22. Губит людей не пиво
    23. 8 лет на казенной постели
    24. Таварищ Парамонова
    25. Батальонный разведчик
    26. Маслицо
    27. Поспели вишни
    28. Постой,паровоз
    29. Увяли розы
    30. Ты знаешь, мать
    31. Я родом из Одессы
    32. Ухарь-купец
    33. Чешу ногу
    34. Окурочек
    35. Раз пошли на дело
    36. Я милого узнаю по походке
    37. Журавли
    38. Людоедочка
    39. Чубчик
    40. Мишка,Мишка
    41. Первая любовь
    42. Степка
    43. Расцвела сирень
    44. Мама,я жулика люблю
    45. Шарабан
    46. Турок
    47. Налетчики

    Нажмите чтобы закрыть спойлер: Треклист

    Спасибо за разрешение на публикацию Ник: SNIKERS

    Братья Жемчужные - 3 альбома, FLAC - Торрент

    Исполнитель. Братья Жемчужные
    Жанр. шансон
    Производитель диска. Россия
    Аудио кодек. FLAC
    Тип рипа. image+.cue
    Битрейт аудио. lossless
    Продолжительность. 0:39:01 / 0:42:30 / 01:01:54; 01:01:26

    Стоял я раз на стреме 1995г.

    01. Стоял я раз на стреме
    02. Семь маслин в нагане
    03. Сонечка
    04. Алеха рыжий
    05. Чужой звонок
    06. Жил я в шумном городе Одесса
    07. Скокарь
    08. Мой приятель студент
    09. Памяти друга
    10. Восьмиклинка
    11. Я один сижу на тротуаре

    Докурим свой окурочек 1999г.

    01. Вступление
    02. Сталинский червонец
    03. Соленые грибочки
    04. На хмельной волне
    05. Докурим свой окурочек
    06. Стюардесса
    07. Дворовый джаз
    08. Старый саксофон
    09. Разговор с Авророй
    10. Биржа
    11. Тетя Маша
    12. Дача
    13. Тетя Фрося

    Годы мчатся (2 CD) 2002г.

    CD-1
    01. Годы мчатся
    02. Ростов
    03. Сева
    04. Осенняя роса
    05. На стреме
    06. Старый саксофон
    07. Джаз
    08. В Кейптаунском порту
    09. Дума
    10. Маруся
    11. Окурочек
    12. Чекистка Сара
    13. Чардаш
    14. Сырок
    15. Попурри

    CD-2
    01. Джамп
    02. Пяточки
    03. Тетя Хая
    04. Серый в яблоках конь
    05. Семен
    06. Папиросы
    07. Тапер
    08. Голова-головушка
    09. На Дерибасовской
    10. Девушка в платье из ситца / Жигули
    11. Мурка
    12. Попурри-2

    Сканы обложек. присутствуют

    • Размер: 1.41 Gb
    • Файлов: 39
    • Сидеры были: 25.04.2017 18:43
    Добавление комментария:

    Скачать музыка Братья Жемчужные - Collection - ТОРРЕНТИНО - торрент трекер

    Братья Жемчужные - Collection [2005/MP3/320]

    Братья Жемчужные - Collection [2005/MP3/320] Исполнитель: Братья Жемчужные
    Альбом: Collection
    Год выхода: 2005
    Тип: Жанр: \ Шансон \
    Формат: MP3
    Битрейт: 320
    Размер: 623.26 MB
    Залит: 08-08-2010 20:04:11
    Описание:
    001. Жил я в шумном городе Одесса
    002. Люблю цыгана Яна
    003. Что не сбылось, то сбудется
    004. Осенняя роса
    005. Несчастная девчоночка
    006. Шумит метель
    007. Вступление
    008. Наташка!
    009. Тёмно-вишнёвая шаль
    010. У нас в Одессе это не едят
    011. Губит людей не пиво
    012. Чёрная роза
    013. Дача
    014. Я милого узнаю по походке
    015. Дежурный по апрелю
    016. Зачем
    017. Конфетки-прянички
    018. Стёпка
    019. Берёзовый сок
    020. Журавли
    021. Душа дурного общества
    022. Поезд ехал на восток
    023. Ухарь-купец
    024. Клопики
    025. Конфетки-прянички.
    026. Дума
    027. Крокодил Гена
    028. Школа бальных танцев
    029. Людоедочка
    030. Расцвела сирень
    031. Дворовый джаз
    032. Ты - случайная встреча
    033. Маслицо
    034. Машка и Мышка
    035. Метёлки
    036. Мужичок из Тольятти
    037. Мишка, Мишка.
    038. Гиппопотам
    039. На Дерибасовской
    040. Биржа
    041. Неудачное свидание
    042. Всю сибирь прошёл.
    043. Тапёр
    044. Твоя фотография
    045. Окурочек
    046. Приморили, гады, приморили
    047. 8 лет на казённой постели
    048. Прощай, ты, Новая Деревня.
    049. На саночках
    050. Скажите, почему
    051. Пара гнедых
    052. Последний луч заката
    053. Алёха рыжий
    054. Поспели вишни
    055. Виновата ли я
    056. Мой приятель студент
    057. Начальничек
    058. Синяя крона
    059. Семь маслин в нагане
    060. Первая любовь
    061. Утомлённое солнце
    062. Солёные грибочки
    063. На троих
    064. Что нас ждёт
    065. Алименты
    066. Скокарь
    067. Я в тупике
    068. Жигули
    069. Стоял я раз на стрёме
    070. Старый саксофон
    071. Старая шляпа
    072. Ах, Одесса!
    073. Сталинский червонец
    074. Мадонна
    075. Батальонный разведчик
    076. Сын поварихи
    077. На хмельной волне
    078. Сонечка
    079. Памяти друга
    080. Сурка
    081. Кабальеро
    082. Рыжая
    083. Мамаши спят.
    084. Чара
    085. Разговор С Авророй
    086. Маруся
    087. Товарищ Парамонова
    088. Тётя Фрося
    089. Да, я пьяна.
    090. Стюардесса
    091. Чужой звонок
    092. Докурим свой окурочек
    093. Я решил жениться
    094. На халяву
    095. Я один сижу на тротуаре
    096. Госпожа разлука
    097. Я родом из Одессы
    098. Серёга-пролетарий
    099. Тётя Маша
    100. А ты хоть удавись!
    101. Баллада о нищете
    102. Постой, паровоз!

    Похожие торренты

    Комментарии

    К сожалению пока никто не оставил комментарий ;(

    © 2009–2017, Торрентино
    По всем вопросам обращаться на admin@torrentino.me

    Правообладателям просьба писать вежливо и своевременно: abuse@torrentino.me и мы отнесемся к вашей просьбе с пониманием.

    Скачать музыку Братья Жемчужные - Дискография (1992) через торрент

    Скачать музыку Братья Жемчужные - Дискография / [1992 - 2002, Шансон, FLAC] - торрент

    Братья Жемчужные - Дискография
    Формат: FLAC, (image + .cue), lossless
    Год выпуска: 1992 - 2002
    Страна: СССР
    Жанр: Шансон
    Продолжительность: 05:37:33
    Описание:

    Стоял я раз на стрёме 1992 00



    Tреклист.
    01. Стоял я раз на стрёме [3:22]
    02. Семь маслин в нагане [3:20]
    03. Сонечка [2:49]
    04. Алёха рыжий [5:32]
    05. Чужой звонок [3:36]
    06. Жил я в шумном городе Одесса [3:26]
    07. Скокарь [2:54]
    08. Мой приятель студент [3:12]
    09. Памяти друга [4:37]
    10. Восьмиклинка [3:19]
    11. Я один сижу на тротуаре [2:53]

    Десять песен двадцать лет спустя 1994 00



    Tреклист.
    01. Показания невиновного [5:37]
    02. Рыжая [3:32]
    03. Журавли [6:37]
    04. Автоматное столетие [3:42]
    05. Стоишь ты на углу [5:10]
    06. Окурочек [4:09]
    07. Маслице [3:19]
    08. Серёга [3:09]
    09. Тётя Хая [6:11]
    10. Поспели вишни [3:32]

    Достойно 1995 00



    Tреклист.
    01. Брат Жемчужный [3:59]
    02. Братва [4:23]
    03. Достойно [3:07]
    04. Березы [5:04]
    05. Осень Петербурга [5:04]
    06. Равенство [3:22]
    07. Кошмары [3:58]
    08. Фонарики [3:05]
    09. Пиво-Воды [3:05]
    10. Ах вы, груди. [4:42]
    11. Раз а Ростове-на-Дону [6:32]

    На халяву 1998 00



    Tреклист.
    01. Вступление [0:18]
    02. На халяву [3:14]
    03. Осенняя роса [3:36]
    04. Тапер [4:48]
    05. Маруся [3:37]
    06. Что нас ждет? [4:13]
    07. Жигули [2:29]
    08. Начальничек [3:29]
    09. Дума [4:16]
    10. Конфетки-прянички [3:31]
    11. Гиппопотам [3:48]
    12. Машка и мышка [4:05]

    Докурим свой окурочек 1999 00



    Tреклист.
    01. Вступление [0:18]
    02. Сталинский червонец [4:32]
    03. Солёные грибочки [3:38]
    04. На хмельной волне [3:05]
    05. Докурим свой окурочек [3:26]
    06. Стюардесса [4:10]
    07. Дворовый джаз [3:24]
    08. Старый саксофон [3:46]
    09. Разговор с Авророй [3:02]
    10. Биржа [3:26]
    11. Тётя Маша [3:24]
    12. Дача [4:53]
    13. Тётя Фрося [1:26]

    Годы мчатся 2002 02



    CD1 01:01:54
    Tреклист.
    01. Годы мчатся [3:46]
    02. Ростов [4:04]
    03. Сева [4:47]
    04. Осенняя роса [5:17]
    05. На стрёме [2:29]
    06. Старый саксофон [4:17]
    07. Джаз [4:52]
    08. В Кейптаунском порту [4:40]
    09. Дума [4:37]
    10. Маруся [3:56]
    11. Окурочек [4:44]
    12. Чекистка Сара [2:50]
    13. Чардаш [4:20]
    14. Сырок [3:48]
    15. Попурри [3:28]

    CD2 01:01:26
    Tреклист.
    01. Джамп [3:47]
    02. Пяточки [5:30]
    03. Тётя Хая [4:32]
    04. Серый в яблоках конь [3:28]
    05. Семен [4:01]
    06. Папиросы [4:20]
    07. Тапёр [5:26]
    08. Голова-головушка [6:18]
    09. На Дерибасовской [6:31]
    10. Девушка в платье из ситца / Жигули [4:49]
    11. Мурка [4:08]
    12. Попурри-2 [8:37]
    Доп. информация:

    1992 - Стоял я раз на стреме

    Exact Audio Copy V0.99 prebeta 5 from 4. May 2009

    Отчёт EAC об извлечении, выполненном 16. января 2011, 19:11

    Братья Жемчужные / Стоял я раз на стрёме

    Дисковод: TSSTcorpCDDVDW SH-S223F Adapter: 2 ID: 0

    Режим чтения. Достоверность
    Использование точного потока. Да
    Отключение кэша аудио. Да
    Использование указателей C2. Нет

    Коррекция смещения при чтении. 6
    Способность читать области Lead-in и Lead-out. Нет
    Заполнение пропущенных сэмплов тишиной. Да
    Удаление блоков с тишиной в начале и конце. Нет
    При вычислениях CRC использовались нулевые сэмплы. Да
    Интерфейс. Встроенный Win32-интерфейс для Win NT/2000

    Выходной формат. Внутренние WAV-операции
    Формат сэмплов. 44.100 Гц; 16 бит; стерео

    TOC извлечённого CD

    Трек | Старт | Длительность | Начальный сектор | Конечный сектор
    ---------------------------------------------------------------------
    1 | 0:00.30 | 3:21.55 | 30 | 15159
    2 | 3:22.10 | 3:20.00 | 15160 | 30159
    3 | 6:42.10 | 2:48.49 | 30160 | 42808
    4 | 9:30.59 | 5:32.22 | 42809 | 67730
    5 | 15:03.06 | 3:36.02 | 67731 | 83932
    6 | 18:39.08 | 3:25.73 | 83933 | 99380
    7 | 22:05.06 | 2:53.73 | 99381 | 112428
    8 | 24:59.04 | 3:12.04 | 112429 | 126832
    9 | 28:11.08 | 4:37.37 | 126833 | 147644
    10 | 32:48.45 | 3:18.57 | 147645 | 162551
    11 | 36:07.27 | 2:53.18 | 162552 | 175544

    Характеристики диапазона извлечения и сообщения об ошибках

    Имя файла F:\Мое\Братья Жемчужные 3 CD\Братья Жемчужные Стоял я раз на стреме\Братья Жемчужные - Стоял я раз на стрёме.wav

    Пиковый уровень 100.0 %
    Качество диапазона 100.0 %
    CRC теста 01B62B3E
    CRC копии 01B62B3E
    Копирование. OK

    Ошибок не произошло

    Трек 1 нет в базе данных
    Трек 2 нет в базе данных
    Трек 3 нет в базе данных
    Трек 4 нет в базе данных
    Трек 5 нет в базе данных
    Трек 6 нет в базе данных
    Трек 7 нет в базе данных
    Трек 8 нет в базе данных
    Трек 9 нет в базе данных
    Трек 10 нет в базе данных
    Трек 11 нет в базе данных

    Ни одного трека нет в базе AccurateRip

    1994 - Десять песен двадцать лет спустя

    Exact Audio Copy V0.99 prebeta 3 from 28. July 2007

    Отчёт EAC об извлечении, выполненном 17. мая 2008, 7:14

    Братья Жемчужные / Десять песен двадцать лет спустя

    Дисковод: HL-DT-STDVD-ROM GDR8163B Adapter: 1 ID: 1

    Режим чтения. Достоверность
    Использование точного потока. Да
    Отключение кэша аудио. Да
    Использование указателей C2. Нет

    Коррекция смещения при чтении. 102
    Способность читать области Lead-in и Lead-out. Нет
    Заполнение пропущенных сэмплов тишиной. Да
    Удаление блоков с тишиной в начале и конце. Нет
    При вычислениях CRC использовались нулевые сэмплы. Нет
    Интерфейс. Встроенный Win32-интерфейс для Win NT/2000

    Выходной формат. Внутренние WAV-операции
    Формат сэмплов. 44.100 Гц; 16 бит; стерео

    TOC извлечённого CD

    Трек | Старт | Длительность | Начальный сектор | Конечный сектор
    ---------------------------------------------------------------------
    1 | 0:00.00 | 5:36.67 | 0 | 25266
    2 | 5:36.67 | 3:32.08 | 25267 | 41174
    3 | 9:09.00 | 6:37.10 | 41175 | 70959
    4 | 15:46.10 | 3:41.60 | 70960 | 87594
    5 | 19:27.70 | 5:09.67 | 87595 | 110836
    6 | 24:37.62 | 4:09.00 | 110837 | 129511
    7 | 28:46.62 | 3:18.45 | 129512 | 144406
    8 | 32:05.32 | 3:09.15 | 144407 | 158596
    9 | 35:14.47 | 6:10.58 | 158597 | 186404
    10 | 41:25.30 | 3:32.35 | 186405 | 202339

    Характеристики диапазона извлечения и сообщения об ошибках

    Имя файла K:\Братья Жемчужные - Десять песен двадцать лет спустя (1995)\Братья Жемчужные - Десять песен двадцать лет спустя.wav

    Пиковый уровень 98.0 %
    Качество диапазона 100.0 %
    CRC копии 8130B970
    Копирование. OK

    Ошибок не произошло

    Трек 1 нет в базе данных
    Трек 2 нет в базе данных
    Трек 3 нет в базе данных
    Трек 4 нет в базе данных
    Трек 5 нет в базе данных
    Трек 6 нет в базе данных
    Трек 7 нет в базе данных
    Трек 8 нет в базе данных
    Трек 9 нет в базе данных
    Трек 10 нет в базе данных

    Ни одного трека нет в базе AccurateRip

    Exact Audio Copy V0.99 prebeta 4 from 23. January 2008

    Отчёт EAC об извлечении, выполненном 23. ноября 2008, 16:11

    Резанов Николай и "Братья Жемчужные" / Достойно

    Дисковод: TEAC DV-W520GM Adapter: 4 ID: 2

    Режим чтения. Достоверность
    Использование точного потока. Да
    Отключение кэша аудио. Да
    Использование указателей C2. Нет

    Коррекция смещения при чтении. 6
    Способность читать области Lead-in и Lead-out. Нет
    Заполнение пропущенных сэмплов тишиной. Да
    Удаление блоков с тишиной в начале и конце. Нет
    При вычислениях CRC использовались нулевые сэмплы. Да
    Интерфейс. Установленный внешний ASPI-интерфейс

    Выходной формат. Внутренние WAV-операции
    Формат сэмплов. 44.100 Гц; 16 бит; стерео

    TOC извлечённого CD

    Трек | Старт | Длительность | Начальный сектор | Конечный сектор
    ---------------------------------------------------------------------
    1 | 0:00.00 | 3:59.35 | 0 | 17959
    2 | 3:59.35 | 4:23.00 | 17960 | 37684
    3 | 8:22.35 | 3:06.65 | 37685 | 51699
    4 | 11:29.25 | 5:03.62 | 51700 | 74486
    5 | 16:33.12 | 5:04.08 | 74487 | 97294
    6 | 21:37.20 | 3:21.72 | 97295 | 112441
    7 | 24:59.17 | 3:58.10 | 112442 | 130301
    8 | 28:57.27 | 3:04.73 | 130302 | 144174
    9 | 32:02.25 | 3:04.55 | 144175 | 158029
    10 | 35:07.05 | 4:41.57 | 158030 | 179161
    11 | 39:48.62 | 6:31.63 | 179162 | 208549

    Характеристики диапазона извлечения и сообщения об ошибках

    Имя файла F:\RELEASE\My RELEASES\Отечественный шансон (lossless)\Братья Жемчужные - Достойно [1995]\Резанов Николай и Братья Жемчужные - Достойно.wav

    Пиковый уровень 98.0 %
    Качество диапазона 100.0 %
    CRC копии 6B737369
    Копирование. OK

    Ошибок не произошло

    Exact Audio Copy V1.0 beta 2 from 29. April 2011

    Отчёт EAC об извлечении, выполненном 7. июля 2011, 22:03

    Братья Жемчужные / На халяву

    Дисковод: PIONEER DVD-RW DVR-118L Adapter: 0 ID: 0

    Режим чтения. Достоверность
    Использование точного потока. Да
    Отключение кэша аудио. Да
    Использование указателей C2. Нет

    Коррекция смещения при чтении. 6
    Способность читать области Lead-in и Lead-out. Нет
    Заполнение пропущенных сэмплов тишиной. Да
    Удаление блоков с тишиной в начале и конце. Нет
    При вычислениях CRC использовались нулевые сэмплы. Да
    Интерфейс. Встроенный Win32-интерфейс для Win NT/2000

    Выходной формат. Пользовательский кодировщик
    Выбранный битрейт. 128 kBit/s
    Качество. Высокий
    Добавление ID3-тэга. Нет
    Утилита сжатия. C:\Program Files\Exact Audio Copy\FLAC\FLAC.EXE
    Дополнительные параметры. -V -8 -T "Date=%year%" -T "Genre=%genre%" %source%

    TOC извлечённого CD

    Трек | Старт | Длительность | Начальный сектор | Конечный сектор
    ---------------------------------------------------------------------
    1 | 0:00.00 | 0:17.44 | 0 | 1318
    2 | 0:17.44 | 3:14.13 | 1319 | 15881
    3 | 3:31.57 | 3:36.33 | 15882 | 32114
    4 | 7:08.15 | 4:47.51 | 32115 | 53690
    5 | 11:55.66 | 3:37.19 | 53691 | 69984
    6 | 15:33.10 | 4:13.07 | 69985 | 88966
    7 | 19:46.17 | 2:29.19 | 88967 | 100160
    8 | 22:15.36 | 3:28.52 | 100161 | 115812
    9 | 25:44.13 | 4:15.56 | 115813 | 134993
    10 | 29:59.69 | 3:31.18 | 134994 | 150836
    11 | 33:31.12 | 3:47.45 | 150837 | 167906
    12 | 37:18.57 | 4:04.59 | 167907 | 186265

    Характеристики диапазона извлечения и сообщения об ошибках

    Имя файла I:\Раздачи 2\Братья Жемчужные_На халяву 1998 г\Братья Жемчужные - На халяву.wav

    Пиковый уровень 100.0 %
    1.7 X
    Качество диапазона 100.0 %
    CRC теста D4E56EE3
    CRC копии D4E56EE3
    Копирование. OK

    Ошибок не произошло

    Трек 1 нет в базе данных
    Трек 2 нет в базе данных
    Трек 3 нет в базе данных
    Трек 4 нет в базе данных
    Трек 5 нет в базе данных
    Трек 6 нет в базе данных
    Трек 7 нет в базе данных
    Трек 8 нет в базе данных
    Трек 9 нет в базе данных
    Трек 10 нет в базе данных
    Трек 11 нет в базе данных
    Трек 12 нет в базе данных

    Ни одного трека нет в базе AccurateRip

    1999 - Докурим свой окурочек

    Exact Audio Copy V0.99 prebeta 5 from 4. May 2009

    Отчёт EAC об извлечении, выполненном 16. января 2011, 19:36

    Братья Жемчужные / Докурим свой окурочек

    Дисковод: TSSTcorpCDDVDW SH-S223F Adapter: 2 ID: 0

    Режим чтения. Достоверность
    Использование точного потока. Да
    Отключение кэша аудио. Да
    Использование указателей C2. Нет

    Коррекция смещения при чтении. 6
    Способность читать области Lead-in и Lead-out. Нет
    Заполнение пропущенных сэмплов тишиной. Да
    Удаление блоков с тишиной в начале и конце. Нет
    При вычислениях CRC использовались нулевые сэмплы. Да
    Интерфейс. Встроенный Win32-интерфейс для Win NT/2000

    Выходной формат. Внутренние WAV-операции
    Формат сэмплов. 44.100 Гц; 16 бит; стерео

    TOC извлечённого CD

    Трек | Старт | Длительность | Начальный сектор | Конечный сектор
    ---------------------------------------------------------------------
    1 | 0:00.00 | 0:18.26 | 0 | 1375
    2 | 0:18.26 | 4:32.16 | 1376 | 21791
    3 | 4:50.42 | 3:37.54 | 21792 | 38120
    4 | 8:28.21 | 3:05.13 | 38121 | 52008
    5 | 11:33.34 | 3:26.03 | 52009 | 67461
    6 | 14:59.37 | 4:09.62 | 67462 | 86198
    7 | 19:09.24 | 3:24.22 | 86199 | 101520
    8 | 22:33.46 | 3:46.23 | 101521 | 118493
    9 | 26:19.69 | 3:01.46 | 118494 | 132114
    10 | 29:21.40 | 3:25.64 | 132115 | 147553
    11 | 32:47.29 | 3:23.40 | 147554 | 162818
    12 | 36:10.69 | 4:52.58 | 162819 | 184776
    13 | 41:03.52 | 1:26.27 | 184777 | 191253

    Характеристики диапазона извлечения и сообщения об ошибках

    Имя файла F:\Мое\Братья Жемчужные 3 CD\Братья Жемчужные Докурим свой окурочек\Братья Жемчужные - Докурим свой окурочек.wav

    Пиковый уровень 94.4 %
    Качество диапазона 100.0 %
    CRC теста F7070CBF
    CRC копии F7070CBF
    Копирование. OK

    Ошибок не произошло

    Трек 1 нет в базе данных
    Трек 2 нет в базе данных
    Трек 3 нет в базе данных
    Трек 4 нет в базе данных
    Трек 5 нет в базе данных
    Трек 6 нет в базе данных
    Трек 7 нет в базе данных
    Трек 8 нет в базе данных
    Трек 9 нет в базе данных
    Трек 10 нет в базе данных
    Трек 11 нет в базе данных
    Трек 12 нет в базе данных
    Трек 13 нет в базе данных

    Ни одного трека нет в базе AccurateRip

    2002 - Годы мчатся CD1

    Exact Audio Copy V0.99 prebeta 5 from 4. May 2009

    Отчёт EAC об извлечении, выполненном 15. февраля 2012, 12:48

    Братья Жемчужные / Годы мчатся. CD1

    Дисковод: ATAPI iHAS122 Adapter: 2 ID: 0

    Режим чтения. Достоверность
    Использование точного потока. Да
    Отключение кэша аудио. Да
    Использование указателей C2. Нет

    Коррекция смещения при чтении. 6
    Способность читать области Lead-in и Lead-out. Нет
    Заполнение пропущенных сэмплов тишиной. Да
    Удаление блоков с тишиной в начале и конце. Нет
    При вычислениях CRC использовались нулевые сэмплы. Да
    Интерфейс. Встроенный Win32-интерфейс для Win NT/2000

    Выходной формат. Внутренние WAV-операции
    Формат сэмплов. 44.100 Гц; 16 бит; стерео

    TOC извлечённого CD

    Трек | Старт | Длительность | Начальный сектор | Конечный сектор
    ---------------------------------------------------------------------
    1 | 0:00.00 | 3:46.30 | 0 | 16979
    2 | 3:46.30 | 4:04.01 | 16980 | 35280
    3 | 7:50.31 | 4:47.14 | 35281 | 56819
    4 | 12:37.45 | 5:17.16 | 56820 | 80610
    5 | 17:54.61 | 2:28.41 | 80611 | 91751
    6 | 20:23.27 | 4:17.27 | 91752 | 111053
    7 | 24:40.54 | 4:51.66 | 111054 | 132944
    8 | 29:32.45 | 4:39.72 | 132945 | 153941
    9 | 34:12.42 | 4:36.58 | 153942 | 174699
    10 | 38:49.25 | 3:55.42 | 174700 | 192366
    11 | 42:44.67 | 4:43.41 | 192367 | 213632
    12 | 47:28.33 | 2:49.38 | 213633 | 226345
    13 | 50:17.71 | 4:20.37 | 226346 | 245882
    14 | 54:38.33 | 3:47.48 | 245883 | 262955
    15 | 58:26.06 | 3:28.11 | 262956 | 278566

    Характеристики диапазона извлечения и сообщения об ошибках

    Имя файла C:\Documents and Settings\Admin\Рабочий стол\Bratya.Zhemchuzhnye.Gody.Mchatsya.2CD.2002.FLAC.CUE.Lossless\CD1\Братья Жемчужные - Годы мчатся. CD1.wav

    Пиковый уровень 100.0 %
    Качество диапазона 100.0 %
    CRC теста 9A6B5AF3
    CRC копии 9A6B5AF3
    Копирование. OK

    Ошибок не произошло

    Трек 1 нет в базе данных
    Трек 2 нет в базе данных
    Трек 3 нет в базе данных
    Трек 4 нет в базе данных
    Трек 5 нет в базе данных
    Трек 6 нет в базе данных
    Трек 7 нет в базе данных
    Трек 8 нет в базе данных
    Трек 9 нет в базе данных
    Трек 10 нет в базе данных
    Трек 11 нет в базе данных
    Трек 12 нет в базе данных
    Трек 13 нет в базе данных
    Трек 14 нет в базе данных
    Трек 15 нет в базе данных

    Ни одного трека нет в базе AccurateRip

    2002 - Годы мчатся CD2

    Exact Audio Copy V0.99 prebeta 5 from 4. May 2009

    Отчёт EAC об извлечении, выполненном 16. февраля 2012, 0:13

    Братья Жемчужные / Годы мчатся. CD2

    Дисковод: ATAPI iHAS122 Adapter: 2 ID: 0

    Режим чтения. Достоверность
    Использование точного потока. Да
    Отключение кэша аудио. Да
    Использование указателей C2. Нет

    Коррекция смещения при чтении. 6
    Способность читать области Lead-in и Lead-out. Нет
    Заполнение пропущенных сэмплов тишиной. Да
    Удаление блоков с тишиной в начале и конце. Нет
    При вычислениях CRC использовались нулевые сэмплы. Да
    Интерфейс. Встроенный Win32-интерфейс для Win NT/2000

    Выходной формат. Внутренние WAV-операции
    Формат сэмплов. 44.100 Гц; 16 бит; стерео

    TOC извлечённого CD

    Трек | Старт | Длительность | Начальный сектор | Конечный сектор
    ---------------------------------------------------------------------
    1 | 0:00.00 | 3:47.28 | 0 | 17052
    2 | 3:47.28 | 5:29.54 | 17053 | 41781
    3 | 9:17.07 | 4:31.57 | 41782 | 62163
    4 | 13:48.64 | 3:28.15 | 62164 | 77778
    5 | 17:17.04 | 4:01.07 | 77779 | 95860
    6 | 21:18.11 | 4:20.18 | 95861 | 115378
    7 | 25:38.29 | 5:25.44 | 115379 | 139797
    8 | 31:03.73 | 6:18.06 | 139798 | 168153
    9 | 37:22.04 | 6:30.55 | 168154 | 197458
    10 | 43:52.59 | 4:49.00 | 197459 | 219133
    11 | 48:41.59 | 4:07.68 | 219134 | 237726
    12 | 52:49.52 | 8:36.55 | 237727 | 276481

    Характеристики диапазона извлечения и сообщения об ошибках

    Имя файла C:\Documents and Settings\Admin\Рабочий стол\Bratya.Zhemchuzhnye.Gody.Mchatsya.2CD.2002.FLAC.CUE.Lossless\CD2\Братья Жемчужные - Годы мчатся. CD2.wav

    Пиковый уровень 100.0 %
    Качество диапазона 100.0 %
    CRC теста B5FD2CA2
    CRC копии B5FD2CA2
    Копирование. OK

    Ошибок не произошло

    Трек 1 нет в базе данных
    Трек 2 нет в базе данных
    Трек 3 нет в базе данных
    Трек 4 нет в базе данных
    Трек 5 нет в базе данных
    Трек 6 нет в базе данных
    Трек 7 нет в базе данных
    Трек 8 нет в базе данных
    Трек 9 нет в базе данных
    Трек 10 нет в базе данных
    Трек 11 нет в базе данных
    Трек 12 нет в базе данных

    Ни одного трека нет в базе AccurateRip