File-Portal

скачать дамское танго торрент

Рейтинг: 4.1/5.0 (286 проголосовавших)

Категория: Торрент-файлы

Описание

Скачать фильм Дамское танго (1983) TVRip через торрент

Скачать фильм Дамское танго (Суламбек Мамилов) / [1983, мелодрама, TVRip] - торрент

Скачать фильм через торрент бесплатно. Фильм доступен на нашем торрент-трекере бесплатно, без регистрации и смс.

Скачать дамское танго торрентФормат: TVRip, AVI, XviD, AC3

2307 kbps avg, 0.23 bit/pixel

Аудио: 48 kHz, AC3 Dolby Digital, 2/0 (L,R) ch,

Автор: AMELJ

Скачать дамское танго торрент

Скачать дамское танго торрент

Скачать дамское танго торрент

Скачать дамское танго торрент

Скачать дамское танго торрент

Информация о торренте:

Скачан: 3158 раз

Статус: Проверен Зарегистрирован на трекере: 2013-07-24 20:24

скачать дамское танго торрент:

  • скачать
  • скачать
  • Другие статьи

    Дамское танго (1983) смотреть онлайн или скачать фильм через торрент

    Дамское танго (1983)

    Дата выхода в России (или в Мире): 19.09.1983

    После того как сын женился, Валентина почувствовала себя никому не нужной. Она уехала к родным в деревню, где встретила и полюбила сезонного рабочего Федора. Но кончилась пора отпусков, и к Федору приехала жена с дочерью…

    Название фильма Название антологии

    20 Май 2017 14:32

    Для просмотра скриншотов нажмите на описание торрента!

    Скачать дамское танго торрент Скачать дамское танго торрент Скачать дамское танго торрент Скачать дамское танго торрент Скачать дамское танго торрент Скачать дамское танго торрент

    Фильмы похожие на Дамское танго

    Видео кодек: MPEG2

    Аудио кодек: MPEG Audio

    Видео: MPEG Video, 704(768)x576 (4:3), 25,000 кадров/сек, 2 559 Кбит/сек

    Аудио: 48,0 КГц, 192 Кбит/сек, 2 канала

    Дамское танго

    Скачать дамское танго торрент

    После того как сын женился, Валентина почувствовала себя никому не нужной. Она уехала к родным в деревню, где встретила и полюбила сезонного рабочего Федора. Но кончилась пора отпусков, и к Федору приехала жена с дочерью…

    Скачать дамское танго торрент

    Дамское танго / Дамское танго (1983) DVB

    Скачать дамское танго торрент

    Название: Дамское танго

    Оригинальное название: Дамское танго

    Год выхода: 1983

    Режиссер: Суламбек Мамилов

    В ролях: Валентина Федотова, Анатолий Васильев (II), Раиса Рязанова, Леонид Неведомский, Николай Крючков, Мария Скворцова, Борис Новиков, Сергей Федоров (VIII), Сергей Рубеко, Яна Друзь, Светлана Селезнёва, Владимир Шуранов, Екатерина Воронина, Татьяна Рудина, Вадим Захарченко

    После того как сын женился, Валентина почувствовала себя никому не нужной. Она уехала к родным в деревню, где встретила и полюбила сезонного рабочего Федора. Но кончилась пора отпусков, и к Федору приехала жена с дочерью…

    Перевод: не требуется

    Видео: MPEG Video, 704(768)x576 (4:3), 25,000 кадров/сек, 2 559 Кбит/сек

    Звук: MPEG Audio, 48,0 КГц, 192 Кбит/сек, 2 канала

    Скачать фильмы Дамское танго 1983 - ТОРРЕНТИНО - торрент трекер - бесплатно TVRip

    Дамское танго (Суламбек Мамилов) [1983, мелодрама, TVRip]

    Год выпуска: 1983

    Режиссёр: Суламбек Мамилов

    Валентина Федотова, Анатолий Васильев (II), Николай Крючков, Мария Скворцова, Леонид Неведомский, Раиса Рязанова, Борис Новиков, Сергей Фёдоров, Сергей Рубеко, Яна Друзь, Светлана Селезнёва, Владимир Шуранов (Мухаметов), Екатерина Воронина, Татьяна Рудина, Вадим Захарченко и другие

    После того, как женился сын Димка, Екатерина почувствовала себя никому не нужной. Уехав к родным в деревню, она встретила и полюбила сезонного рабочего Федора. Но кончилась пора отпусков - и к Федору вернулась жена с любимой дочерью.

    Сценарист: Валерий Чиков

    Оператор: Гасан Тутунов

    Композитор: Виктор Рафаэлов

    Художник: Борис Дуленков

    Производство: Киностудия им.Горького

    Премьера: 19 сентября 1983

    Качество видео: TVRip

    Формат видео: DVD Video

    Видео: MPEG2 Video 720x576 (4:3) 25.00fps 4071 - 9282Kbps [Video]

    Аудио: Dolby AC3 48000Hz stereo 256Kbps [AC-3]

    Скачать Дамское танго (1983) TVRip торрент на

    Дамское танго (1983) TVRip

    Скачать дамское танго торрент

    Откуда: Рівне Західна Україна

    Скачать дамское танго торрент

    02-Ноя-2014 15:41

    Скачать дамское танго торрент

    Выпущено: СССР, Киностудия им. "Горького"

    После того, как женился сын, героиня почувствовала себя никому не нужной. Уехав к родным в деревню, она встретила и полюбила сезонного рабочего Федора. Но кончилась пора отпусков - и к Федору вернулась жена с любимой дочерью.

    Режиссер: Суламбек Мамилов

    Актеры: Валентина Федотова, Анатолий Васильев, Николай Крючков, Мария Скворцова, Леонид Неведомский, Раиса Рязанова, Борис Новиков, Сергей Рубеко, Татьяна Рудина

    Размер кадра: 720 x 544

    Качество видео: TVRip

    Аудиокодек: MP3 2.0

    Битрейт аудио: 256 Кбит/с

    Полное имя : Дамское танго.avi

    Формат/Информация : Audio Video Interleave

    Размер файла : 752 Мбайт

    Продолжительность : 1 ч. 23 м.

    Общий поток : 1266 Кбит/сек

    Библиотека кодирования : VirtualDub-MPEG2 build 23843/release

    Формат : MPEG-4 Visual

    Параметр BVOP формата : Нет

    Параметр QPel формата : Нет

    Параметр GMC формата : Без точки перехода

    Параметр матрицы формата : Default (H.263)

    Идентификатор кодека : XVID

    Идентификатор кодека/Подсказка : XviD

    Продолжительность : 1 ч. 23 м.

    Битрейт : 1000 Кбит/сек

    Ширина : 720 пикселей

    Высота : 544 пикселя

    Соотношение сторон : 4:3

    Частота кадров : 25,000 кадров/сек

    Цветовое пространство : YUV

    Субдискретизация насыщенности : 4:2:0

    Битовая глубина : 8 бит

    Тип развёртки : Прогрессивная

    Метод сжатия : С потерями

    Размер потока : 594 Мбайт (79%)

    Библиотека кодирования : XviD 1.2.1 (UTC 2008-12-04)

    Формат : MPEG Audio

    Версия формата : Version 1

    Профиль формата : Layer 3

    Режим : Joint stereo

    Идентификатор кодека : 55

    Идентификатор кодека/Подсказка : MP3

    Продолжительность : 1 ч. 23 м.

    Вид битрейта : Постоянный

    Битрейт : 256 Кбит/сек

    Каналы : 2 канала

    Частота : 44,1 КГц

    Метод сжатия : С потерями

    Задержка видео : 11 мс.

    Размер потока : 152 Мбайт (20%)

    Выравнивание : Разделение по промежуткам

    Продолжительность промежутка : 40 мс. (1,00 видеокадр)

    Время предзагрузки промежутка : 500 мс.

    Текущее время: Сегодня 18:06

    Часовой пояс: GMT + 4

    Вы не можете отвечать на сообщения

    Вы не можете редактировать свои сообщения

    Вы не можете удалять свои сообщения

    Вы не можете голосовать в опросах

    Вы не можете прикреплять файлы к сообщениям

    Вы можете скачивать файлы

    Search Powered by Sphinx

    Powered by TorrentPier II © Meithar, TorrentPier II Team