File-Portal

скачать торрент черный принц

Рейтинг: 5.0/5.0 (267 проголосовавших)

Категория: Торрент-файлы

Описание

Чёрный принц (1973) скачать торрент (torrent) бесплатно

скачать торрент черный принц

Полковник Зорин, знакомый зрителям по фильму «Возвращение «Святого Луки», расследует очередное преступление. Неизвестными совершено дерзкое ограбление. На этот раз из ценнейшей коллекции украден уникальный бриллиант «Черный принц». Этот камень стоит баснословную сумму денег.

Скачать торрент черный принц

Скачать торрент черный принц

Скачать торрент черный принц

Скачать торрент черный принц

Скачать торрент черный принц

Скачать торрент черный принц

Скачать торрент черный принц

* Форматы и их краткое описание.

AVI - видео кодеки XviD, стандартное разрешение фильма 720x384;

MKV - видео кодеки AVC, стандартное разрешение фильма 720x384;

MKV 720р - видео кодеки H.26x или AVC, стандартное разрешение фильма 1280 x 720;

MKV 1080р - видео кодеки H.26x или AVC, стандартное разрешение фильма 1920x1080;

DVD video - образ DVD диска, видео кодеки MPEG2, стандартное разрешение фильма 720x576.

M2TS - образ Blu-Ray диска, стандартное разрешение фильма 1920x1080;

Чёрный принц () год выпуска 1973 скачать торрент бесплатно, без регистрации и SMS (СМС).

скачать торрент черный принц:

  • скачать
  • скачать
  • Другие статьи

    Черный принц скачать торрент (Анатолий Бобровский) 1973, Детектив, DVDRip

    Черный принц (Анатолий Бобровский) [1973, Детектив, DVDRip]

    Стаж: 12 лет 10 месяцев

    intellect · 24-Июл-08 18:28 (9 лет 1 месяц назад, ред. 04-Янв-11 00:39)

    Год выпуска : 1973

    Режиссер : Анатолий Бобровский

    В ролях : Всеволод Санаев, Николай Гриценко, Тамара Семина, Раиса Куркина, Владимир Носик, Александр Калягин, Павел Панков, Геннадий Корольков, Игорь Кашинцев, Феликс Яворский, Ольга Науменко, Дмитрий Масанов, Герберт Дмитриев, Юрий Мартынов, Виктор Маркин, Елена Вольская, Юрий Соковнин

    Описание : Чёрный принц — советский детективный фильм . Второй фильм трилогии о милиции про полковника Зорина с Всеволодом Санаевым в главной роли.

    Неизвестными совершено дерзкое ограбление. На этот раз из ценнейшей коллекции похищен уникальный бриллиант «Чёрный принц». Этот камень стоит баснословную сумму денег. Полковник Зорин (Всеволод Санаев) расследует очередное преступление.

    Видео кодек : DivX

    Аудио кодек : MP3

    Видео : 672x304 (2.21:1), 25 fps, DivX Codec 5.x or 6.x

    Скачать фильм Черный принц (1973) DVDRip через торрент

    Скачать фильм Черный принц (Анатолий Бобровский) / [1973, детектив, DVDRip-AVC] - торрент

    Скачать фильм через торрент бесплатно. Фильм доступен на нашем торрент-трекере бесплатно, без регистрации и смс.

    Скачать торрент черный принцФормат: DVDRip-AVC, MKV, H.264, AC3

    Режиссер: Анатолий Бобровский

    2104 kbps, 0.377 bit/pixel

    Аудио: 48 kHz, АС3 Dolby Digital, 2 ch,

    Format version : Version 2

    File size : 1.46 GiB

    Duration : 1h 30mn

    Overall bit rate : 2 298 Kbps

    Movie name : Чёрный принц.1973

    Encoded date : UTC 2012-06-14 19:43:37

    Writing application : mkvmerge v5.0.1 ('Es ist Sommer') built on Oct 24 2011 19:45:06

    Writing library : libebml v1.2.2 + libmatroska v1.3.0

    Format/Info : Advanced Video Codec

    Format profile : High@L4.1

    Format settings, CABAC : Yes

    Format settings, ReFrames : 16 frames

    Codec ID : V_MPEG4/ISO/AVC

    Duration : 1h 30mn

    Bit rate : 2 104 Kbps

    Width : 672 pixels

    Height : 332 pixels

    Display aspect ratio : 2.2:1

    Original display aspect ratio : 2.2:1

    Frame rate : 25.000 fps

    Color space : YUV

    Chroma subsampling : 4:2:0

    Bit depth : 8 bits

    Scan type : Progressive

    Stream size : 1.31 GiB (90%)

    Title : Чёрный принц.1973

    Writing library : x264 core 124 r2197 69a0443

    Encoding settings : cabac=1 / ref=16 / deblock=1:-1:-1 / analyse=0x3:0x133 / me=umh / subme=11 / psy=1 / psy_rd=1.05:0.15 / mixed_ref=1 / me_range=48 / chroma_me=1 / trellis=2 / 8x8dct=1 / cqm=0 / deadzone=21,11 / fast_pskip=0 / chroma_qp_offset=-3 / threads=12 / sliced_threads=0 / nr=0 / decimate=0 / interlaced=0 / bluray_compat=0 / constrained_intra=0 / bframes=10 / b_pyramid=2 / b_adapt=2 / b_bias=0 / direct=3 / weightb=1 / open_gop=0 / weightp=2 / keyint=250 / keyint_min=25 / scenecut=40 / intra_refresh=0 / rc_lookahead=60 / rc=2pass / mbtree=1 / bitrate=2104 / ratetol=1.0 / qcomp=0.60 / qpmin=0 / qpmax=69 / qpstep=4 / cplxblur=20.0 / qblur=0.5 / vbv_maxrate=50000 / vbv_bufsize=50000 / nal_hrd=none / ip_ratio=1.40 / aq=1:1.10

    Color primaries : BT.470-6 System B, BT.470-6 System G, BT.601-6 625, BT.1358 625, BT.1700 625 PAL, BT.1700 625 SECAM

    Transfer characteristics : BT.470-6 System B, BT.470-6 System G

    Matrix coefficients : BT.470-6 System B, BT.470-6 System G, BT.601-6 625, BT.1358 625, BT.1700 625 PAL, BT.1700 625 SECAM, IEC 61966-2-4 601

    Format/Info : Audio Coding 3

    Mode extension : CM (complete main)

    Codec ID : A_AC3

    Duration : 1h 30mn

    Bit rate mode : Constant

    Bit rate : 192 Kbps

    Channel(s) : 2 channels

    Channel positions : Front: L R

    Sampling rate : 48.0 KHz

    Bit depth : 16 bits

    Compression mode : Lossy

    Stream size : 125 MiB (8%)

    Title : Оригинал AC-3; 16 bits 48 Khz; 2ch 192 Kbps; CBR

    Скачать торрент черный принц

    Скачать торрент черный принц

    Скачать торрент черный принц

    Скачать торрент черный принц

    Информация о торренте:

    Статус: Проверен Зарегистрирован на трекере: 2017-04-24 10:15

    Сборник фильмов про полковник Зорина (Возвращение - Святого Луки, Чёрный принц, Версия полковника Зорина) (1970-1978) DVDRip скачать через торрент бес

    Сборник фильмов про полковник Зорина (Возвращение "Святого Луки", Чёрный принц, Версия полковника Зорина) (1970-1978) DVDRip [H.264]

    Добавлено: 05 июл 2014, 23:36

    • Скачать торрент черный принц

    Видео 1: 704x330 (2.35:1), 25.000 fps, AVC, 1 788 Kbps

    Видео 2: 672x330 (2.227:1), 25.000 fps, AVC, 1 698 Kbps

    Видео 3: 704x430 (2.35:1), 25.000 fps, AVC, 2 012 Kbps

    Аудио: AC3, 192 Kbps, 48.0 KHz, 2 ch

    Сценарий: С. Дерковский, Н. Кондашов, Владимир Кузнецов, .

    Художник: Саид Меняльщиков, Семен Валюшок

    Рейтинг MPAA: Нет возрастных ограничений Качество: DVDRip-AVC

    Видео: 704x330 (2.35:1), 25.000 fps, AVC, 1 788 Kbps

    Аудио: AC3, 192 Kbps, 48.0 KHz, 2 ch

    Complete name : Film.1.Vozvrashenie.Svyatogo.Luki.1970.DVDRip-AVC.h264.almikl.mkv

    File size : 1.25 GiB

    Duration : 1h 30mn

    Overall bit rate : 1 982 Kbps

    Encoded date : UTC 2013-03-28 10:46:43

    Writing application : mkvmerge v6.0.0 ('Coming Up For Air') built on Jan 20 2013 09:52:00

    Writing library : libebml v1.3.0 + libmatroska v1.4.0

    Format/Info : Advanced Video Codec

    Format settings, CABAC : Yes

    Format settings, ReFrames : 6 frames

    Muxing mode : Container profile=Unknown@4.1

    Codec ID : V_MPEG4/ISO/AVC

    Duration : 1h 30mn

    Bit rate : 1 788 Kbps

    Width : 704 pixels

    Height : 330 pixels

    Display aspect ratio : 2.35:1

    Original display aspect ratio : 2.35:1

    Frame rate : 25.000 fps

    Color space : YUV

    Chroma subsampling : 4:2:0

    Bit depth : 8 bits

    Scan type : Progressive

    Stream size : 1.10 GiB (88%)

    Writing library : x264 core 129 r2245 bc13772

    Encoding settings : cabac=1 / ref=6 / deblock=1:-1:-1 / analyse=0x3:0x113 / me=umh / subme=10 / psy=1 / psy_rd=1.00:0.15 / mixed_ref=1 / me_range=32 / chroma_me=1 / trellis=2 / 8x8dct=1 / cqm=0 / deadzone=21,11 / fast_pskip=1 / chroma_qp_offset=-3 / threads=12 / lookahead_threads=2 / sliced_threads=0 / nr=0 / decimate=1 / interlaced=0 / bluray_compat=0 / constrained_intra=0 / bframes=10 / b_pyramid=2 / b_adapt=2 / b_bias=0 / direct=1 / weightb=1 / open_gop=0 / weightp=2 / keyint=250 / keyint_min=25 / scenecut=40 / intra_refresh=0 / rc_lookahead=40 / rc=2pass / mbtree=1 / bitrate=1788 / ratetol=1.0 / qcomp=0.60 / qpmin=10 / qpmax=51 / qpstep=4 / cplxblur=20.0 / qblur=0.5 / ip_ratio=1.40 / aq=1:1.00

    Чёрный принц (1973) DVD-5

    Чёрный принц (1973) DVD-5

    Скачать торрент черный принц

    Год выпуска: 1973

    Полковник Зорин, знакомый зрителям по фильму «Возвращение «Святого Луки», расследует очередное преступление. Неизвестными совершено дерзкое ограбление. На этот раз из ценнейшей коллекции похищен уникальный бриллиант «Черный принц». Этот камень стоит баснословную сумму денег…

    Сценарий: Владимир Кузнецов

    Продюсер: Борис Гостынский

    Оператор: Георгий Куприянов

    Художник: Семен Валюшок

    Композитор: Исаак Шварц

    В ролях: Всеволод Санаев, Николай Гриценко, Тамара Семина, Геннадий Корольков, Раиса Куркина, Владимир Носик, Александр Калягин, Павел Панков, Игорь Кашинцев, Дмитрий Масанов, Феликс Яворский, Герберт Дмитриев, Евгений Лисконог, Валентина Толкунова, Ольга Науменко

    Качество видео: DVD

    Audio #0 (Русская) : AC-3 at 192 Кбит/сек, 2 канала, 48,0 КГц