File-Portal

скачать барбарелла торрент img-1

скачать барбарелла торрент

Рейтинг: 4.0/5.0 (1291 проголосовавших)

Категория: Торрент-файлы

Описание

Скачать фильм Барбарелла (1968) через торрент

Барбарелла

Оригинальное название: Barbarella

Продолжительность: 98 мин. / 01:38

Скачать фильм «Барбарелла» через торрент бесплатно

Перевод: Профессиональный (многоголосый закадровый) DVD Магия + Оригинальная звуковая дорожка +Профессиональный (многоголосый закадровый) SomeWax

Субтитры: Русские, английские, английские (SDH)(внешние, srt*)

Качество: BDRip (источник:

Видео: 720x304 (2.37:1), 23.976 fps, XviD build 65

1721 kbps avg, 0.33 bit/pixel

Аудио #1: 48 kHz, AC3, 2/0 (L,R) ch,

192.00 kbps avg (RUS, MVO) DVD Магия

Аудио #2: 48 kHz, AC3, 2/0 (L,R) ch,

192.00 kbps avg (ENG)

Аудио #3: 48 kHz, AC3, 2/0 (L,R) ch,

192.00 kbps avg (RUS, MVO) SomeWax(Отдельно на http)

Скачать барбарелла торрент Скачать барбарелла торрент

Перевод: Профессиональный (многоголосый закадровый) DVD Магия + Профессиональный (многоголосый закадровый) SomeWax + Оригинальная звуковая дорожка

Субтитры: Русские, английские, английские (SDH)(*.srt, отключаемые)

Качество: BDRip-AVC (источник:

Видео: 1040x442 (2,35:1), 23.976 fps, x264@L4.1, 2pass,

3662 kbps avg, 0.33 bit/pixel

Аудио #1: 48 kHz, AC3, 2/0 (L,R) ch,

192.00 kbps avg (RUS, MVO) DVD Магия

Аудио #2: 48 kHz, AC3, 2/0 (L,R) ch,

192.00 kbps avg (RUS, MVO) SomeWax

Аудио #3: 48 kHz, AC3, 2/0 (L,R) ch,

192.00 kbps avg (ENG)

Видео: Идентификатор : 1 Формат : AVC Формат/Информация : Advanced Video Codec Профиль формата : High@L4.1 Параметр CABAC формата : Да Параметр ReFrames формата : 10 кадров Идентификатор кодека : V_MPEG4/ISO/AVC Продолжительность : 1 ч. 38 м. Битрейт : 3662 Кбит/сек Ширина : 1040 пикселей Высота : 442 пикселя Соотношение сторон : 2,35:1 Режим частоты кадров : Постоянный Частота кадров : 23,976 кадра/сек Цветовое пространство : YUV Субдискретизация насыщенности : 4:2:0 Битовая глубина : 8 бит Тип развёртки : Прогрессивная Бит/(Пиксели*Кадры) : 0.332 Размер потока : 2,45 Гбайт (84%) Заголовок : Барбарелла / Barbarella (1968) BDRip-AVC by MOSFET | HQCLUB.NET Библиотека кодирования : x264 core 130 r2273 b3065e6 Настройки программы : cabac=1 / ref=10 / deblock=1:-2:-1 / analyse=0x3:0x113 / me=esa / subme=10 / psy=1 / psy_rd=1.00:0.00 / mixed_ref=1 / me_range=48 / chroma_me=1 / trellis=2 / 8x8dct=1 / cqm=0 / deadzone=21,11 / fast_pskip=0 / chroma_qp_offset=-2 / threads=12 / lookahead_threads=3 / sliced_threads=0 / nr=0 / decimate=1 / interlaced=0 / bluray_compat=0 / constrained_intra=0 / bframes=10 / b_pyramid=2 / b_adapt=2 / b_bias=0 / direct=3 / weightb=1 / open_gop=0 / weightp=2 / keyint=240 / keyint_min=23 / scenecut=40 / intra_refresh=0 / rc_lookahead=50 / rc=2pass / mbtree=1 / bitrate=3662 / ratetol=1.0 / qcomp=0.70 / qpmin=0 / qpmax=69 / qpstep=4 / cplxblur=20.0 / qblur=0.5 / vbv_maxrate=50000 / vbv_bufsize=62500 / nal_hrd=none / ip_ratio=1.40 / aq=1:0.80 Язык : English Default : Да Forced : Нет

Аудио #1: Идентификатор : 2 Формат : AC-3 Формат/Информация : Audio Coding 3 Расширение режима : CM (complete main) Параметр Endianness формата : Big Идентификатор кодека : A_AC3 Продолжительность : 1 ч. 38 м. Вид битрейта : Постоянный Битрейт : 192 Кбит/сек Каналы : 2 канала Расположение каналов : Front: L R Частота : 48,0 КГц Битовая глубина : 16 бит Метод сжатия : С потерями Размер потока : 135 Мбайт (5%) Заголовок : Профессиональный (многоголосый закадровый) DVD Магия Язык : Russian Default : Да Forced : Нет

Аудио #2: Идентификатор : 3 Формат : AC-3 Формат/Информация : Audio Coding 3 Расширение режима : CM (complete main) Параметр Endianness формата : Big Идентификатор кодека : A_AC3 Продолжительность : 1 ч. 38 м. Вид битрейта : Постоянный Битрейт : 192 Кбит/сек Каналы : 2 канала Расположение каналов : Front: L R Частота : 48,0 КГц Битовая глубина : 16 бит Метод сжатия : С потерями Размер потока : 135 Мбайт (5%) Заголовок : Профессиональный (многоголосый закадровый) SomeWax Язык : Russian Default : Нет Forced : Нет

Аудио #3: Идентификатор : 4 Формат : AC-3 Формат/Информация : Audio Coding 3 Расширение режима : CM (complete main) Параметр Endianness формата : Big Идентификатор кодека : A_AC3 Продолжительность : 1 ч. 38 м. Вид битрейта : Постоянный Битрейт : 192 Кбит/сек Каналы : 2 канала Расположение каналов : Front: L R Частота : 48,0 КГц Битовая глубина : 16 бит Метод сжатия : С потерями Размер потока : 135 Мбайт (5%) Заголовок : Оригинальная звуковая дорожка Язык : English Default : Нет Forced : Нет

Барбарелла Торрент:

  • скачать
  • скачать
  • Другие статьи

    Скачать барбарелла торрент

    Барбарелла / Barbarella (1968) BDRip от HQCLUB

    Скачать барбарелла торрент

    Барбарелла / Barbarella (1968) BDRip

    Скачать барбарелла торрент

    Оригинальное название: Barbarella

    Режиссер: Роже Вадим

    В ролях: Джейн Фонда, Джон Филлип Ло, Анита Палленберг, Майло О’Ши, Марсель Марсо, Клод Дофен, Вероник Венделл, Джанкарло Кобелли, Серж Маркан, Нино Муско

    Молодой ученый по имени Дюран-Дюран неожиданно исчез в неизведанных окрестностях звезды Тау-Сети по пути на Полярную Звезду. Казалось бы - ну и что? Мало ли какие дела могли появиться у уважаемого ученого?

    Автор рипа: MOSFET

    Перевод: Профессиональный (многоголосый закадровый) DVD Магия + Оригинальная звуковая дорожка + Профессиональный (многоголосый закадровый) SomeWax (Отдельно на http)

    Субтитры: Русские, английские, английские (SDH) (внешние, srt*)

    Качество: BDRip (источник: HDClub / Blu-Ray Remux / 1080p)

    Видео: 720x304 (2.37:1), 23.976 fps, XviD build 65

    1721 kbps avg, 0.33 bit/pixel

    Аудио #1: 48 kHz, AC3, 2/0 (L,R) ch,

    192.00 kbps avg (RUS, MVO) DVD Магия

    Аудио #2: 48 kHz, AC3, 2/0 (L,R) ch,

    192.00 kbps avg (ENG)

    Аудио #3: 48 kHz, AC3, 2/0 (L,R) ch,

    192.00 kbps avg (RUS, MVO) SomeWax (Отдельно на http)

    Барбарелла — Barbarella (1968) — Смотреть онлайн или скачать бесплатно через торрент

    скачать барбарелла торрент

    Скачать барбарелла торрент

    Год выпуска : 1968

    Страна : Италия, Франция

    Жанр : Боевик, Комедия, Фантастика, Фентези, Приключения

    Продолжительность : 94 минуты

    Перевод : Профессиональный (Многоголосый) - Лицензия

    В ролях : Джейн Фонда, Марсель Марсо, Джон Филип Ло, Уго Тоньяцци, Анита Пелленберг, Мило О`Ши, Клод Дофин, Вероник Венделл, Джанкарло Кобели, Серж Манквард, Нино Муско

    Описание : Действие разворачивается в 41 веке от Рождества Христова. Безумный ученый по имени Дюран-Дюран изобрел позитронический луч оружие, способное уничтожить любую планету, и даже солнечную систему. Отвести опасность от Земли поручено очаровательному пилоту Барбарелле. Преследуя ученого, наивная и добрая Барбарелла даже не подозревает с чем и с кем ей будет нужно столкнуться на ледяной земле Литеон.

    Скачать фильмы Барбарелла - ТОРРЕНТИНО - торрент трекер - бесплатно BDRip

    Барбарелла / Barbarella (1968) BDRip

    Барбарелла / Barbarella (1968) BDRip

    Информация о фильме:

    Оригинальное название: Barbarella

    Год выхода: 1968

    Жанр: фантастика, фэнтези, боевик, комедия, приключения

    Режиссер: Роже Вадим

    В ролях: Джейн Фонда, Джон Филлип Ло, Анита Палленберг, Майло О’Ши, Марсель Марсо, Клод Дофен, Вероник Венделл, Джанкарло Кобелли, Серж Маркан, Нино Муско

    Молодой ученый по имени Дюран-Дюран неожиданно исчез в неизведанных окрестностях звезды Тау-Сети по пути на Полярную Звезду. Казалось бы - ну и что? Мало ли какие дела могли появиться у уважаемого ученого?

    Однако Президент Солнечной Системы прекрасно осведомлен, что Дюран-Дюран изобрел такую великую игрушку, как позитронический луч, которая может уничтожить не только Солнечную Систему, но и вообще всю Вселенную.

    И тогда он призывает на помощь раскрепощенную и страшно красивую искательницу сексуальных приключений, которая странствует по всей Вселенной в 41-м столетии от Рождества Христова. Она встречается с представителями рас и цивилизаций самой разнообразной внешности и несет им всем простую и скромную вещь - любовь.

    Выпущено: Франция, Италия

    Перевод: Профессиональный (многоголосый закадровый) DVD Магия + Профессиональный (многоголосый закадровый) SomeWax + Оригинальная звуковая дорожка

    Субтитры: Русские, английские, английские (SDH) (*.srt, отключаемые)

    Сохранены оригинальные чаптеры как на Blu-ray.

    Качество: BDRip-AVC (источник: HDClub / Blu-Ray Remux / 1080p)

    Видео: 1040x442 (2,35:1), 23.976 fps, x264@L4.1, 2pass,

    Скачать барбарелла торрент

    Cкачать торрент бесплатно

    Скачать барбарелла торрент

    Оригинальное название: Barbarella

    Жанр: фантастика, фэнтези, боевик, комедия, приключения

    Режиссер: Роже Вадим

    В ролях: Джейн Фонда, Джон Филлип Ло, Анита Палленберг, Майло О’Ши, Марсель Марсо, Клод Дофен, Вероник Венделл, Джанкарло Кобелли, Серж Маркан, Нино Муско

    Молодой ученый по имени Дюран-Дюран неожиданно исчез в неизведанных окрестностях звезды Тау-Сети по пути на Полярную Звезду. Казалось бы - ну и что? Мало ли какие дела могли появиться у уважаемого ученого?

    Автор рипа: MOSFET

    Перевод: Профессиональный (многоголосый закадровый) DVD Магия Профессиональный (многоголосый закадровый) SomeWax Оригинальная звуковая дорожка

    Субтитры: Русские, английские, английские (SDH) (*.srt, отключаемые)

    Качество: BDRip-AVC (источник: HDClub / Blu-Ray Remux / 1080p)

    Видео: 1040x442 (2,35:1), 23.976 fps, x264@L4.1, 2pass,

    3662 kbps avg, 0.33 bit/pixel

    Аудио #1: 48 kHz, AC3, 2/0 (L,R) ch,

    192.00 kbps avg (RUS, MVO) DVD Магия

    Аудио #2: 48 kHz, AC3, 2/0 (L,R) ch,

    192.00 kbps avg (RUS, MVO) SomeWax

    Аудио #3: 48 kHz, AC3, 2/0 (L,R) ch,

    192.00 kbps avg (ENG)

    Размер: 2973,23 MB (2/3 DVD)

    Скачать барбарелла торрент Скачать барбарелла торрент Скачать барбарелла торрент Скачать барбарелла торрент Скачать барбарелла торрентСкачать барбарелла торрент

    Версия формата : Version 4 / Version 2

    Размер файла : 2,90 Гбайт

    Продолжительность : 1 ч. 38 м.

    Общий поток : 4235 Кбит/сек

    Дата кодирования : UTC 2013-05-10 08:19:44

    Программа кодирования : mkvmerge v6.2.0 (;Promised Land;) built on Apr 28 2013 12:22:01

    Библиотека кодирования : libebml v1.3.0 libmatroska v1.4.0

    Формат/Информация : Advanced Video Codec

    Профиль формата : High@L4.1

    Параметр CABAC формата : Да

    Параметр ReFrames формата : 10 кадров

    Идентификатор кодека : V_MPEG4/ISO/AVC

    Продолжительность : 1 ч. 38 м.

    Битрейт : 3662 Кбит/сек

    Ширина : 1040 пикселей

    Высота : 442 пикселя

    Соотношение сторон : 2,35:1

    Режим частоты кадров : Постоянный

    Частота кадров : 23,976 кадра/сек

    Цветовое пространство : YUV

    Субдискретизация насыщенности : 4:2:0

    Битовая глубина : 8 бит

    Тип развёртки : Прогрессивная

    Размер потока : 2,45 Гбайт (84%)

    Заголовок : Барбарелла / Barbarella (1968) BDRip-AVC by MOSFET | HQCLUB.NET

    Библиотека кодирования : x264 core 130 r2273 b3065e6